Welcome Guest ( Log In | Register )

> Releases Upload / Добавление релизов

Добавить релиз тут / Click here to add release
Рекомендованные обменники / Recommended file shares

> Overwind - I Can Do It Again (2018), Progressive/Heavy Metal
post Apr 16 2018, 12:23:16
Post #1

Serial Uploader
Group Icon
Group: V.I.P
Posts: 32,071
Releases: 30386
From: Lithuania
On Forums: 9 years 10 months
Thanks: 349657 time(s)
Lithuania


(IMG:https://metalarea.org/images/audiocovers/2018_Apr/acov_tid304733_thumb.jpg)

*Artist: Overwind
*Album: I Can Do It Again
*Year: 2018
*Genre: Progressive/Heavy Metal
*Country: Russian Federation (IMG:https://metalarea.org/forum/style_images/flags/Russian%20Federation.png)
*Format: mp3@CBR320kbps
*Size: 109MB

Tracklist:
01. Labyrinth
02. Night Rider
03. I Can Do It Again
04. Sleepwalker
05. In Vino Veritas
06. Dancing Spirits
07. One More Day
08. Blackout
09. Devil' Game
10. Get Over Crisis
11. Time Forward
******************************
Total playing time: 47:37



Technical info
(IMG:https://metalarea.org/images/spectrogram/2018_Apr/2c869974b539b324cf6a1085b41cd5f3.png)
Input File: 02. Night Rider.mp3
Channels : 2
Sample Rate : 44100
Precision : 16-bit
Duration : 00:04:46.12 = 12618024 samples = 21459.2 CDDA sectors
File Size : 11.4M
Bit Rate : 320k
Sample Encoding: MPEG audio (layer I, II or III)
Comments :
Title=Night Rider
Artist=Overwind
Album=I Can Do It Again
Tracknumber=2/11
Year=2018



Register


Вернуться к началу страницы
  Insert nick Quick quote
+Цитировать сообщение
 
Создать новую тему
Replies (1 - 3)
post Apr 16 2018, 18:23:28
Post #2

Мегаманьяк
***********
Group: Металариец
Posts: 1,632
Releases: 0
From: Мытищи
On Forums: 10 years 1 month
Thanks: 846 time(s)
Russian Federation


Довольно интересная и современно звучащая Краснодарская группа.
Про стиль спорить не буду, тут каждый для себя сам определит)
Сайт: http://overwind.ru/

Пара песен для ознакомления:
Register


Thanks:
(2) csgmnk, Foneg,
Вернуться к началу страницы
  Insert nick Quick quote
+Цитировать сообщение
post Apr 17 2018, 13:57:34
Post #3

тебе 27, а ты все реверсами балуешься
**********
Group: Металариец
Posts: 1,350
Releases: 4
From: SPB
On Forums: 9 years 8 months
Thanks: 339 time(s)
Russian Federation


И правда, музыка очень приятная и интересная, в то же время слушается очень легко (IMG:style_emoticons/default/20.gif)

Превью: https://vk.com/overwind
Вернуться к началу страницы
  Insert nick Quick quote
+Цитировать сообщение
post Apr 19 2018, 19:36:31
Post #4

21st Century Schizoid Man
**************
Group: Металариец
Posts: 5,009
Releases: 66
From: Moscow
On Forums: 9 years 11 months
Thanks: 3964 time(s)
Russian Federation


Хороший альбом. Приятный вокал, нормальное (не совецкое) произношение, интересный материал.
Определение стиля вопросов не вызывает.
Вернуться к началу страницы
  Insert nick Quick quote
+Цитировать сообщение

ОтветитьСоздать новую тему
2 User(s) are reading this topic (2 Guests and 0 Anonymous Users)
0 Members:

 



- Lo-Fi Version Support form
Copyrights and abuse reports form
Time is now: 21st April 2018 - 10:34:47