Welcome Guest ( Log In | Register )

 
Reply to this topicStart new topic
> Millions Of Dead Parazites & Ektopia - Suicide By Hydrochloric Acid Massive Ingestion [split] (2018), Goregrind/Noisegrind | Goregrind (D10)
post Apr 16 2018, 12:58:09
Post #1

Serial Uploader
Group Icon
Group: V.I.P
Posts: 32,863
Releases: 31159
From: Lithuania
On Forums: 10 years 1 month
Thanks: 356948 time(s)
Lithuania


(IMG:https://metalarea.org/images/audiocovers/2018_Apr/acov_tid304735_thumb.jpg)

*Artist: Millions Of Dead Parazites & Ektopia
*Album: Suicide By Hydrochloric Acid Massive Ingestion [split]
*Year: 2018
*Genre: Goregrind/Noisegrind | Goregrind
*Country: Bosnia and Herzegovina (IMG:https://metalarea.org/forum/style_images/flags/Bosnia%20and%20Herzegovina.png) | Mexico (IMG:https://metalarea.org/forum/style_images/flags/Mexico.png)
*Format: mp3@CBR320kbps
*Size: 31MB

Tracklist:
Millions Of Dead Parazites:
01. Alive Necropsy 02:05
02. Congenital Malformation Of A Deformed Fetus 00:43
03. Idiopathic Scoliosis 01:58
04. Legalize Negligence 02:28
Ektopia:
05. Filmando Porno Gratis 01:08
06. Orgasmo Simultáneo 02:03
07. SxUxIxCxIxDxEx 02:34
******************************
Total playing time: 12:59



(IMG:https://metalarea.org/images/youtube.png)

Technical info
(IMG:https://metalarea.org/images/spectrogram/2018_Apr/fa5b3a991253bdd7d3d3e1a65065de3b.png)
Input File: 02. Congenital Malformation of a Deformed Fetus.mp3
Channels : 2
Sample Rate : 44100
Precision : 16-bit
Duration : 00:00:43.16 = 1903268 samples = 3236.85 CDDA sectors
File Size : 1.91M
Bit Rate : 354k
Sample Encoding: MPEG audio (layer I, II or III)
Comments :
Title=Congenital Malformation of a Deformed Fetus
Artist=Millions of dead parazites / Ektopia
Album=Suicide By Hydrochloric Acid Massive Ingestion
Tracknumber=2
Year=2018



Register


Thanks:
Go to the top of the page
  Insert nick Quick quote
+Quote Post

Reply to this topicStart new topic
1 User(s) are reading this topic (1 Guests and 0 Anonymous Users)
0 Members:

 



- Lo-Fi Version Support form
Copyrights and abuse reports form
Time is now: 21st July 2018 - 00:54:15