Welcome Guest ( Log In | Register )

 
Reply to this topicStart new topic
> Ruff Majik - Seasons (2018), Sludge/Doom Metal
post Apr 16 2018, 13:08:20
Post #1

Serial Uploader
Group Icon
Group: V.I.P
Posts: 33,063
Releases: 31348
From: Lithuania
On Forums: 10 years 3 months
Thanks: 358607 time(s)
Lithuania


(IMG:https://metalarea.org/images/audiocovers/2018_Apr/acov_tid304736_thumb.jpg)

*Artist: Ruff Majik
*Album: Seasons
*Year: 2018
*Genre: Sludge/Doom Metal
*Country: South Africa (IMG:https://metalarea.org/forum/style_images/flags/South%20Africa.png)
*Format: mp3@CBR320kbps
*Size: 152MB

Tracklist:
01. Harpy
02. Gone Down To The Woods Today
03. Breathing Ghosts
04. Last Of The Witches
05. It Flies At Night
06. Hanami Sakura (And The Ritual Suicide)
07. The Deep Blue
08. Hammered Are The Gods
09. Birds Stole My Eyes
10. Tar Black Blood
11. Come All Ye Druids
12. Asleep In The Leaves
******************************
Total playing time: 1:06:09



Technical info
(IMG:https://metalarea.org/images/spectrogram/2018_Apr/b0aafb7952b145b1e60215223f354ad0.png)
Input File: 02. Gone Down to the Woods Today.mp3
Channels : 2
Sample Rate : 44100
Precision : 16-bit
Duration : 00:05:15.15 = 13897983 samples = 23636 CDDA sectors
File Size : 12.7M
Bit Rate : 322k
Sample Encoding: MPEG audio (layer I, II or III)
Comments :
Title=Gone Down to the Woods Today
Artist=Ruff Majik
Album=Seasons
Tracknumber=2/12
Year=2018
Genre=9
Discnumber=1/1



Register


Thanks:
Go to the top of the page
  Insert nick Quick quote
+Quote Post

Reply to this topicStart new topic
1 User(s) are reading this topic (1 Guests and 0 Anonymous Users)
0 Members:

 



- Lo-Fi Version Support form
Copyrights and abuse reports form
Time is now: 22nd September 2018 - 04:26:00