Welcome Guest ( Log In | Register )

> Releases Upload / Добавление релизов

Добавить релиз тут / Click here to add release
Рекомендованные обменники / Recommended file shares

 
ОтветитьСоздать новую тему
> Wildime - Boaster Trauma (2018), Groove/Southern Metal
post Apr 16 2018, 13:15:44
Post #1

Serial Uploader
Group Icon
Group: V.I.P
Posts: 32,071
Releases: 30386
From: Lithuania
On Forums: 9 years 10 months
Thanks: 349657 time(s)
Lithuania


(IMG:https://metalarea.org/images/audiocovers/2018_Apr/acov_tid304737_thumb.jpg)

*Artist: Wildime
*Album: Boaster Trauma
*Year: 2018
*Genre: Groove/Southern Metal
*Country: Italy (IMG:https://metalarea.org/forum/style_images/flags/Italy.png)
*Format: mp3@CBR320kbps
*Size: 92MB

Tracklist:
01. Killer Is Here
02. Boaster Trauma
03. It's Growing Inside
04. Here To Show The Way
05. Life's Dying Fall
06. All He Has
07. Deny
08. Never Again
09. I'm Alive
10. Part Of Me
******************************
Total playing time: 40:29



(IMG:https://metalarea.org/images/youtube.png)

Technical info
(IMG:https://metalarea.org/images/spectrogram/2018_Apr/c4299b22e105aeb71facf92edc253040.png)
Input File: 03. It\'s Growing Inside.mp3
Channels : 2
Sample Rate : 44100
Precision : 16-bit
Duration : 00:04:01.21 = 10637537 samples = 18091 CDDA sectors
File Size : 9.65M
Bit Rate : 320k
Sample Encoding: MPEG audio (layer I, II or III)
Comments :
Title=It's Growing Inside
Artist=Wildime
Album=Boaster Trauma
Tracknumber=3/10
Year=2018



Register


Thanks:
Вернуться к началу страницы
  Insert nick Quick quote
+Цитировать сообщение

ОтветитьСоздать новую тему
2 User(s) are reading this topic (2 Guests and 0 Anonymous Users)
0 Members:

 



- Lo-Fi Version Support form
Copyrights and abuse reports form
Time is now: 21st April 2018 - 10:36:33