Welcome Guest ( Log In | Register )

> Endless Scream - Absolution (2018), Melodic Death Metal
post Apr 16 2018, 13:23:08
Post #1

Serial Uploader
Group Icon
Group: V.I.P
Posts: 32,863
Releases: 31159
From: Lithuania
On Forums: 10 years 1 month
Thanks: 356948 time(s)
Lithuania


(IMG:https://metalarea.org/images/audiocovers/2018_Apr/acov_tid304738_thumb.jpg)

*Artist: Endless Scream
*Album: Absolution
*Year: 2018
*Genre: Melodic Death Metal
*Country: Germany (IMG:https://metalarea.org/forum/style_images/flags/Germany.png)
*Format: mp3@CBR320kbps
*Size: 107MB

Tracklist:
01. Intro
02. Not One Of Your Kind
03. Vendetta
04. Touch The Lightning
05. Cut To Pieces
06. Failure In Perfection
07. Deadface
08. Forgotten Words
09. Hopeless // Light In The Grave
10. Absolution
11. The Past
12. Stand Up And Protest
******************************
Total playing time: 46:25



Technical info
(IMG:https://metalarea.org/images/spectrogram/2018_Apr/b7c6e5db2b6d921364961209598bd33c.png)
Input File: 02. Not One of Your Kind.mp3
Channels : 2
Sample Rate : 44100
Precision : 16-bit
Duration : 00:04:48.50 = 12722850 samples = 21637.5 CDDA sectors
File Size : 11.6M
Bit Rate : 322k
Sample Encoding: MPEG audio (layer I, II or III)
Comments :
Title=Not One of Your Kind
Artist=Endless Scream
Album=Absolution
Tracknumber=2/12
Year=2018
Genre=17
Discnumber=1/1



Register


Go to the top of the page
  Insert nick Quick quote
+Quote Post
 
Start new topic
Replies (1 - 8)
post Apr 16 2018, 17:11:25
Post #2

MDM-Thrash Metal
**************
Group: Металариец
Posts: 6,883
Releases: 412
From: Одесса
On Forums: 10 years 11 months
Thanks: 13132 time(s)
Ukraine


https://www.youtube.com/watch?v=AThh4pBbWj8 (Endless Scream - Vendetta)
https://www.youtube.com/watch?v=rI8AUrz6nSE (Endless Scream - Absolution)
https://www.youtube.com/watch?v=BMNUDAQmK6Y (Endless Scream - Failure in Perfection)


Thanks:
Go to the top of the page
  Insert nick Quick quote
+Quote Post
post Apr 16 2018, 23:11:37
Post #3

Group: Дух
Posts: 4
Releases: 0
On Forums: 3 months 2 weeks
Thanks: 0 time(s)
Denmark


Thanks!
Go to the top of the page
  Insert nick Quick quote
+Quote Post
post Apr 17 2018, 18:55:19
Post #4

MDM-Thrash Metal
**************
Group: Металариец
Posts: 6,883
Releases: 412
From: Одесса
On Forums: 10 years 11 months
Thanks: 13132 time(s)
Ukraine


Register


Go to the top of the page
  Insert nick Quick quote
+Quote Post
post Apr 17 2018, 19:37:18
Post #5
BAN
Banned till
Jul 30 2018, 04:38:35



Немцы и мелодэт несовместимы.


Thanks:
(1) Ghostb,
Go to the top of the page
  Insert nick Quick quote
+Quote Post
post Apr 17 2018, 19:40:08
Post #6

Волк без яблока
**************
Group: Металариец
Posts: 13,003
Releases: 102
From: Санкт-Петербург
On Forums: 11 years 9 months
Thanks: 14566 time(s)
Russian Federation


А как же Words of Farewell?
Go to the top of the page
  Insert nick Quick quote
+Quote Post
post Apr 17 2018, 19:54:31
Post #7
BAN
Banned till
Jul 30 2018, 04:38:35



ЦИТАТА(MeatWolf @ 17th April 2018 - 21:40:08) *
А как же Words of Farewell?

Говно.
Go to the top of the page
  Insert nick Quick quote
+Quote Post
post Apr 18 2018, 09:59:28
Post #8

Dark Ambient Shoujo
*********
Group: Металариец
Posts: 994
Releases: 1
On Forums: 9 years 6 months
Thanks: 489 time(s)
Russian Federation


Ноунейм группы, у которых есть видео студийной записи, – однозначное дно.
Go to the top of the page
  Insert nick Quick quote
+Quote Post
post Apr 23 2018, 19:19:55
Post #9

Победитель судьбы
**************
Group: Металариец
Posts: 5,015
Releases: 0
From: Страны Мамонтов
On Forums: 11 years 4 months
Thanks: 1706 time(s)
Antarctica


ЦИТАТА(6666666 @ Apr 17 2018, 21:37:18) *
Немцы и мелодэт несовместимы.

То, что ты в мелодэт никак - это было понятно давно. Но зачем еще и немцев обижать???
Go to the top of the page
  Insert nick Quick quote
+Quote Post

Reply to this topicStart new topic
1 User(s) are reading this topic (1 Guests and 0 Anonymous Users)
0 Members:

 



- Lo-Fi Version Support form
Copyrights and abuse reports form
Time is now: 21st July 2018 - 00:53:57