Welcome Guest ( Log In | Register )

 
Reply to this topicStart new topic
> Gone With A Blastwave - Broken Beyond Repair (2018), Groove Metal
post Apr 16 2018, 13:30:17
Post #1

Serial Uploader
Group Icon
Group: V.I.P
Posts: 33,394
Releases: 31661
From: Lithuania
On Forums: 10 years 6 months
Thanks: 361741 time(s)
Lithuania


(IMG:https://metalarea.org/images/audiocovers/2018_Apr/acov_tid304739_thumb.jpg)

*Artist: Gone With A Blastwave
*Album: Broken Beyond Repair
*Year: 2018
*Genre: Groove Metal
*Country: Germany (IMG:https://metalarea.org/forum/style_images/flags/Germany.png)
*Format: mp3@CBR320kbps
*Size: 118MB

Tracklist:
01. Broken Beyond Repair
02. The Curse
03. Hunted
04. Get Up
05. Lie To Me
06. Fear No Harm
07. Sacrifice
08. Session 9
09. Daydream
10. Know Your Place
******************************
Total playing time: 51:06



Technical info
(IMG:https://metalarea.org/images/spectrogram/2018_Apr/3098b12796e6a75e861fd8115d345c54.png)
Input File: 02. The Curse.mp3
Channels : 2
Sample Rate : 44100
Precision : 16-bit
Duration : 00:05:50.10 = 15439498 samples = 26257.6 CDDA sectors
File Size : 14.1M
Bit Rate : 322k
Sample Encoding: MPEG audio (layer I, II or III)
Comments :
Title=The Curse
Artist=Gone With A Blastwave
Album=Broken Beyond Repair
Tracknumber=2/10
Year=2018
Genre=17
Discnumber=1/1



Register


Thanks:
Go to the top of the page
  Insert nick Quick quote
+Quote Post

Reply to this topicStart new topic
1 User(s) are reading this topic (1 Guests and 0 Anonymous Users)
0 Members:

 



- Lo-Fi Version Support form
Copyrights and abuse reports form
Time is now: 13th December 2018 - 09:10:13