Welcome Guest ( Log In | Register )

> Puteraeon - The Dunwich Damnation [ep] (2018), Death Metal
post Apr 16 2018, 13:38:03
Post #1

Serial Uploader
Group Icon
Group: V.I.P
Posts: 32,955
Releases: 31249
From: Lithuania
On Forums: 10 years 2 months
Thanks: 357713 time(s)
Lithuania


(IMG:https://metalarea.org/images/audiocovers/2018_Apr/acov_tid304740_thumb.jpg)

*Artist: Puteraeon
*Album: The Dunwich Damnation [ep]
*Year: 2018
*Genre: Death Metal
*Country: Sweden (IMG:https://metalarea.org/forum/style_images/flags/Sweden.png)
*Format: mp3@CBR320kbps
*Size: 43MB

Tracklist:
01. The Living Inferno
02. Dunwich
03. What Awaits Below
04. Dance Of Damnation
05. N'Yog-Sothep
******************************
Total playing time: 18:37

(IMG:https://metalarea.org/images/myspace.png)


(IMG:https://metalarea.org/images/youtube.png)

Technical info
(IMG:https://metalarea.org/images/spectrogram/2018_Apr/072a92cae3222ade753d38571fa18a44.png)
Input File: 02. Dunwich.mp3
Channels : 2
Sample Rate : 44100
Precision : 16-bit
Duration : 00:00:00.21 = 9129 samples = 15.5255 CDDA sectors
File Size : 8.46M
Bit Rate : 327M
Sample Encoding: MPEG audio (layer I, II or III)
Comments :
Title=Dunwich
Artist=Puteraeon
Album=The Dunwich Damnation
Tracknumber=2/5
Year=2018-18-20
Discnumber=1/1



Register


Go to the top of the page
  Insert nick Quick quote
+Quote Post
 
Start new topic
Replies (1 - 2)
post Apr 16 2018, 20:06:09
Post #2

Crush The Enemies
**************
Group: Металариец
Posts: 4,115
Releases: 0
From: Moscow
On Forums: 8 years 11 months
Thanks: 2127 time(s)
Russian Federation



Неплохая получилась ипишка - всё,как по нотам - отличный бархатный саунд,подобающий вокал и всё такое,но без изысков.


Thanks:
(1) WOLAND,
Go to the top of the page
  Insert nick Quick quote
+Quote Post
post Jul 1 2018, 12:53:59
Post #3

brutalcesar
**************
Group: Металариец
Posts: 17,574
Releases: 67
From: Рязань
On Forums: 9 years 7 months
Thanks: 8770 time(s)
Russian Federation


Register


Go to the top of the page
  Insert nick Quick quote
+Quote Post

Reply to this topicStart new topic
2 User(s) are reading this topic (2 Guests and 0 Anonymous Users)
0 Members:

 



- Lo-Fi Version Support form
Copyrights and abuse reports form
Time is now: 22nd August 2018 - 06:25:23