Welcome Guest ( Log In | Register )

 
Reply to this topicStart new topic
> Czar - Minus [ep] (2018), Avant-Garde Grindcore/Mathcore/Jazz (D5)
post Apr 16 2018, 13:47:11
Post #1

Правь статус, ####!111
**************
Group: Металариец
Posts: 2,760
Releases: 730
On Forums: 8 years 2 months
Thanks: 9657 time(s)
Ukraine


(IMG:https://metalarea.org/images/audiocovers/2018_Apr/acov_tid304741_thumb.jpg)

*Artist: Czar
*Album: Minus [ep]
*Year: 2018
*Genre: Avant-Garde Grindcore/Mathcore/Jazz
*Country: United States (IMG:https://metalarea.org/forum/style_images/flags/United%20States.png)
*Format: mp3@CBR320kbps
*Size: 29MB

Tracklist:
1. Lazarus Is Dead Again 03:09
2. Train Wrecks & Coffin Dodgers 01:11
3. Sharks Can't Surf 05:10
4. Planned Obsolescence 02:56
******************************
Total playing time: 12:26




Extended info
Genre: Hyper-Violence, Progressive grindcore, post-grind, Avant-Grind, tech-metal, noise, experimental, psychedelic, shred

Line-Up:
Vocals- Dr. Landon Jared Wonser
Bass- Peter Joseph Ruff
Drums- David Joseph Dorran Jr.
Keyboard- Christopher Duenas
Guitar- Nicholas J. McManus


Technical info
(IMG:https://metalarea.org/images/spectrogram/2018_Apr/fbc62fad0b30617fbd4e3ccec595b74d.png)
Input File: 02 - Train Wrecks & Coffin Dodgers.mp3
Channels : 2
Sample Rate : 44100
Precision : 16-bit
Duration : 00:01:11.09 = 3135025 samples = 5331.68 CDDA sectors
File Size : 2.93M
Bit Rate : 329k
Sample Encoding: MPEG audio (layer I, II or III)
Comments :
Title=Train Wrecks & Coffin Dodgers
Artist=Czar
Album=Minus
Tracknumber=2
Year=2018



Register


Go to the top of the page
  Insert nick Quick quote
+Quote Post

Reply to this topicStart new topic
1 User(s) are reading this topic (1 Guests and 0 Anonymous Users)
0 Members:

 



- Lo-Fi Version Support form
Copyrights and abuse reports form
Time is now: 13th December 2018 - 10:35:45