Welcome Guest ( Log In | Register )

 
Reply to this topicStart new topic
> Tribal Bones - Not Me, Just Us (2018), Thrash Metal/Hardcore
post Apr 16 2018, 13:48:04
Post #1

Serial Uploader
Group Icon
Group: V.I.P
Posts: 32,939
Releases: 31231
From: Lithuania
On Forums: 10 years 2 months
Thanks: 357626 time(s)
Lithuania


(IMG:https://metalarea.org/images/audiocovers/2018_Apr/acov_tid304742_thumb.jpg)

*Artist: Tribal Bones
*Album: Not Me, Just Us
*Year: 2018
*Genre: Thrash Metal/Hardcore
*Country: Canada (IMG:https://metalarea.org/forum/style_images/flags/Canada.png)
*Format: mp3@CBR320kbps
*Size: 51MB

Tracklist:
01. Get Tribal
02. Spirit Of Death
03. Scream
04. Traitor
05. People In The Corner (P.I.T.C)
06. The Game
07. T-Bone
08. Riot
09. New Order
******************************
Total playing time: 23:57



Technical info
(IMG:https://metalarea.org/images/spectrogram/2018_Apr/ed34149d2caa94217ada243f1cc40d9f.png)
Input File: 02. Spirit of Death.mp3
Channels : 2
Sample Rate : 44100
Precision : 16-bit
Duration : 00:02:43.07 = 7191563 samples = 12230.5 CDDA sectors
File Size : 6.64M
Bit Rate : 326k
Sample Encoding: MPEG audio (layer I, II or III)
Comments :
Title=Spirit of Death
Artist=Tribal Bones
Album=Not Me, Just Us
Tracknumber=2/9
Year=2018
Genre=9
Discnumber=1/1



Register


Go to the top of the page
  Insert nick Quick quote
+Quote Post

Reply to this topicStart new topic
2 User(s) are reading this topic (2 Guests and 0 Anonymous Users)
0 Members:

 



- Lo-Fi Version Support form
Copyrights and abuse reports form
Time is now: 19th August 2018 - 04:34:21