Welcome Guest ( Log In | Register )

> Vampyr - Wamphyric Fullmoon [demo] (2000), Black Metal
post Apr 16 2018, 14:16:37
Post #1

Serial Uploader
Group Icon
Group: V.I.P
Posts: 33,063
Releases: 31348
From: Lithuania
On Forums: 10 years 3 months
Thanks: 358607 time(s)
Lithuania


(IMG:http://metalarea.org/images/audiocovers/2018_Apr/acov_uid106123_a72a6713b4f638c29c2ad738cda9b4fd_thumb.jpg)

*Artist: Vampyr
*Album: Wamphyric Fullmoon [demo]
*Year: 2000
*Genre: Black Metal
*Country: France (IMG:https://metalarea.org/forum/style_images/flags/France.png)
*Format: mp3@VBR243kbps
*Size: 20MB

Tracklist:
01. Intro/ Among Ancient Graves
02. Wamphyric Fullmoon
03. Leviathan Incarnate
04. Lugubrious Cries Over The Valley Of Shadows
******************************
Total playing time: 11:35

Extended info
Scene Tape-rip


Technical info
(IMG:https://metalarea.org/images/spectrogram/2018_Apr/75eed18a1f08c42241a7d6745484b0d3.png)
Input File: 01-vampyr-vamphyric_fullmoon.mp3
Channels : 2
Sample Rate : 44100
Precision : 16-bit
Duration : 00:11:35.20 = 30658144 samples = 52139.7 CDDA sectors
File Size : 21.1M
Bit Rate : 243k
Sample Encoding: MPEG audio (layer I, II or III)
Comments :
Title=Vamphyric Fullmoon
Artist=Vampyr
Album=Wamphyric Fullmoon
Tracknumber=1/1
Year=2000-00-00
Genre=Black Metal



Register


This post has been edited by Borderline1991: Apr 17 2018, 11:00:30


Go to the top of the page
  Insert nick Quick quote
+Quote Post
 
Start new topic
Replies (1 - 7)
post Apr 16 2018, 18:59:31
Post #2

Семь Литров
*******
Group: Металариец
Posts: 783
Releases: 165
On Forums: 7 years 11 months
Thanks: 1983 time(s)
Albania


really really great demo. a RARE GEM.THANKS A LOT BRO (IMG:style_emoticons/default/true_black.gif) (IMG:style_emoticons/default/20.gif)
Go to the top of the page
  Insert nick Quick quote
+Quote Post
post Apr 16 2018, 22:38:08
Post #3

Три Литра
***
Group: Завсегдатай
Posts: 262
Releases: 19
On Forums: 10 months 1 week
Thanks: 396 time(s)
Brazil


I WAS LOOKING FOR THIS DEMO FOR YEARS, THANK YOU VERY MUCH DUDE <3 <3
Go to the top of the page
  Insert nick Quick quote
+Quote Post
post Apr 17 2018, 06:19:27
Post #4

Satan bless you!
**************
Group: Металариец
Posts: 3,250
Releases: 63
From: Москва
On Forums: 10 years 2 months
Thanks: 2803 time(s)
Russian Federation


Шикарный андеграунд! (IMG:style_emoticons/default/pray.gif)
Alexya Varney - All instruments, Vocals
(R.I.P. 2006) - suicide..вот так девушка

This post has been edited by RUSP73: Apr 17 2018, 06:50:06
Go to the top of the page
  Insert nick Quick quote
+Quote Post
post Apr 17 2018, 10:32:00
Post #5

Девять Литров
*********
Group: Металариец
Posts: 971
Releases: 37
From: великий город Питер
On Forums: 12 years 9 months
Thanks: 1780 time(s)
Russian Federation


название альбома всё-таки должно быть через W:
(IMG:http://ultrapic.net/i/no_category/6/5/1/7/14043.jpg)
(IMG:http://ultrapic.net/i/no_category/2/6/4/5/14044.jpg)


Thanks:
Go to the top of the page
  Insert nick Quick quote
+Quote Post
post Apr 18 2018, 01:46:29
Post #6

..ще до загибелі
**********
Group: Металариец
Posts: 1,154
Releases: 0
From: Мати Руських Міст
On Forums: 7 years 6 months
Thanks: 881 time(s)
Ukraine


да типичная херка была же. неужели подобная активность с кучей недогрупп 2000-2004 годов - такое прям 3алупенное ретро?
Go to the top of the page
  Insert nick Quick quote
+Quote Post
post Jun 16 2018, 12:26:06
Post #7

Пять Литров
*****
Group: Металариец
Posts: 473
Releases: 0
On Forums: 6 years 4 months
Thanks: 34 time(s)
Belarus


Перезалейте,пожалуйста
Go to the top of the page
  Insert nick Quick quote
+Quote Post
post Jun 17 2018, 18:04:01
Post #8

Маньяк
**********
Group: Металариец
Posts: 1,068
Releases: 23
On Forums: 10 months 3 weeks
Thanks: 2085 time(s)
Unknown


VBR243kbps
Register


Go to the top of the page
  Insert nick Quick quote
+Quote Post

Reply to this topicStart new topic
1 User(s) are reading this topic (1 Guests and 0 Anonymous Users)
0 Members:

 



- Lo-Fi Version Support form
Copyrights and abuse reports form
Time is now: 22nd September 2018 - 04:36:59