Welcome Guest ( Log In | Register )

> Raw Rust - Darwinist Regression (2018), Death/Thrash Metal
post Apr 16 2018, 14:42:36
Post #1

Serial Uploader
Group Icon
Group: V.I.P
Posts: 32,863
Releases: 31159
From: Lithuania
On Forums: 10 years 1 month
Thanks: 356948 time(s)
Lithuania


(IMG:https://metalarea.org/images/audiocovers/2018_Apr/acov_tid304745_thumb.jpg)

*Artist: Raw Rust
*Album: Darwinist Regression
*Year: 2018
*Genre: Death/Thrash Metal
*Country: Italy (IMG:https://metalarea.org/forum/style_images/flags/Italy.png)
*Format: mp3@CBR320kbps
*Size: 74MB

Tracklist:
01. Living Room
02. Zoocracy
03. Necrophagism
04. H5N1
05. Buffering Emotions
06. Devouring Competition
07. Darwinist Regression, Pt. 1
08. Darwinist Regression, Pt. 2
******************************
Total playing time: 28:42




Technical info
(IMG:https://metalarea.org/images/spectrogram/2018_Apr/4aceaed1ce271ac900a81ce22c961232.png)
Input File: 02. Zoocracy.mp3
Channels : 2
Sample Rate : 44100
Precision : 16-bit
Duration : 00:04:12.29 = 11126033 samples = 18921.8 CDDA sectors
File Size : 10.6M
Bit Rate : 336k
Sample Encoding: MPEG audio (layer I, II or III)
Comments :
Title=Zoocracy
Artist=Raw Rust
Album=Darwinist Regression
Tracknumber=2/8
Year=2018
Genre=Death Metal
Discnumber=1/1



Register


Go to the top of the page
  Insert nick Quick quote
+Quote Post
 
Start new topic
Replies (1 - 1)
post Apr 16 2018, 20:04:19
Post #2

Crush The Enemies
**************
Group: Металариец
Posts: 4,096
Releases: 0
From: Moscow
On Forums: 8 years 10 months
Thanks: 2059 time(s)
Russian Federation


Трескотня какая то (IMG:style_emoticons/default/22.gif)


Go to the top of the page
  Insert nick Quick quote
+Quote Post

Reply to this topicStart new topic
1 User(s) are reading this topic (1 Guests and 0 Anonymous Users)
0 Members:

 



- Lo-Fi Version Support form
Copyrights and abuse reports form
Time is now: 21st July 2018 - 00:55:52