Welcome Guest ( Log In | Register )

 
Reply to this topicStart new topic
> Embryectomy & Psychosomatic Self-Mutilation & Nephrectomy - Absolution Through Sacred Extrication [split] (2018), Brutal Death Metal | Brutal Death Metal | Brutal Death Metal (D4)(D10)
post Apr 16 2018, 15:02:29
Post #1

Serial Uploader
Group Icon
Group: V.I.P
Posts: 32,939
Releases: 31231
From: Lithuania
On Forums: 10 years 2 months
Thanks: 357626 time(s)
Lithuania


(IMG:https://metalarea.org/images/audiocovers/2018_Apr/acov_tid304746_thumb.jpg)

*Artist: Embryectomy & Psychosomatic Self-Mutilation & Nephrectomy
*Album: Absolution Through Sacred Extrication [split]
*Year: 2018
*Genre: Brutal Death Metal | Brutal Death Metal | Brutal Death Metal
*Country: Greece (IMG:https://metalarea.org/forum/style_images/flags/Greece.png) | Norway (IMG:https://metalarea.org/forum/style_images/flags/Norway.png) | United States (IMG:https://metalarea.org/forum/style_images/flags/United%20States.png)
*Format: mp3@VBR270kbps
*Size: 94MB

Tracklist:
Embryectomy:
01. Reverse Ectrosis
02. Abandoned Baby Mincing
03. Gestational Autophagy
04. Neonatal Existence Liquidation
Psychosomatic Self-Mutilation:
05. Hydrogen Cyanide
06. Chronic Bitch Choke
07. Intimate Killings
08. A Plague Upon Humanity
Nephrectomy:
09. Vehement Seepage
10. Chris Barnes Is A Juggalo
11. BBC Bludgeoning
12. World Of Painal
13. Too Sad To Cum
******************************
Total playing time: 49:29





(IMG:https://metalarea.org/images/youtube.png)

Extended info
Scene CD-rip


Technical info
(IMG:https://metalarea.org/images/spectrogram/2018_Apr/fbf42c5aec5213339b7bce17637c46a8.png)
Input File: 02-embryectomy-abandoned_baby_mincing.mp3
Channels : 2
Sample Rate : 44100
Precision : 16-bit
Duration : 00:03:30.34 = 9275862 samples = 15775.3 CDDA sectors
File Size : 7.24M
Bit Rate : 275k
Sample Encoding: MPEG audio (layer I, II or III)
Comments :
Title=Abandoned Baby Mincing
Artist=Embryectomy
Album=Absolution Through Sacred Extrication
Tracknumber=2/13
Year=2018
Genre=Death Metal
Discnumber=1/1



Register


Go to the top of the page
  Insert nick Quick quote
+Quote Post

Reply to this topicStart new topic
2 User(s) are reading this topic (2 Guests and 0 Anonymous Users)
0 Members:

 



- Lo-Fi Version Support form
Copyrights and abuse reports form
Time is now: 19th August 2018 - 04:33:27