Welcome Guest ( Log In | Register )

> Releases Upload / Добавление релизов

Добавить релиз тут / Click here to add release
Рекомендованные обменники / Recommended file shares

 
ОтветитьСоздать новую тему
> Viken - Obsession Divine/Insane [demo] (1987), Speed/Heavy Metal
post Apr 16 2018, 17:11:54
Post #1

Подвал
**************
Group: Металариец
Posts: 12,086
Releases: 6809
From: Far East (Khabarovsk)
On Forums: 9 years 3 months
Thanks: 62131 time(s)
Russian Federation


(IMG:https://metalarea.org/images/audiocovers/2018_Apr/acov_tid304751_thumb.jpg)

*Artist: Viken
*Album: Obsession Divine/Insane [demo]
*Year: 1987
*Genre: Speed/Heavy Metal
*Country: France (IMG:https://metalarea.org/forum/style_images/flags/France.png)
*Format: mp3@CBR320kbps
*Size: 32MB

Tracklist:
1. Sorcière 05:14
2. Insane 05:35
3. Larmes Dans La Chair 04:38
******************************
Total playing time: 15:27

(IMG:https://metalarea.org/images/myspace.png)

Technical info
(IMG:https://metalarea.org/images/spectrogram/2018_Apr/2724345a0d694b2c6fb59f1d59ff0f47.png)
Input File: 01-Sorcière.mp3
Channels : 2
Sample Rate : 44100
Precision : 16-bit
Duration : 00:05:14.96 = 13889780 samples = 23622.1 CDDA sectors
File Size : 12.6M
Bit Rate : 320k
Sample Encoding: MPEG audio (layer I, II or III)
Comments :
Title=Sorciere
Artist=Viken (fra)
Album=Obsession Divine / Insane (Demo)
Tracknumber=01
Year=1987
Genre=Metal



Register


Thanks:
Вернуться к началу страницы
  Insert nick Quick quote
+Цитировать сообщение

ОтветитьСоздать новую тему
1 User(s) are reading this topic (1 Guests and 0 Anonymous Users)
0 Members:

 



- Lo-Fi Version Support form
Copyrights and abuse reports form
Time is now: 21st May 2018 - 08:11:23