Welcome Guest ( Log In | Register )

 
Reply to this topicStart new topic
> Sol - The Storm Bells Chime (2015), Drone Doom Metal/Avantgarde
post Apr 16 2018, 21:42:23
Post #1

####!111
**************
Group: Металариец
Posts: 3,676
Releases: 125
From: The Mountain Of DOOM
On Forums: 11 years 2 months
Thanks: 5149 time(s)
Russian Federation


(IMG:https://metalarea.org/images/audiocovers/2018_Apr/acov_tid304757_thumb.jpg)

*Artist: Sol
*Album: The Storm Bells Chime
*Year: 2015
*Genre: Drone Doom Metal/Avantgarde
*Country: Denmark (IMG:https://metalarea.org/forum/style_images/flags/Denmark.png)
*Format: mp3@CBR320kbps
*Size: 81MB

Tracklist:
1. The Sky Is Empty 1:50
2. Ascending To The Embrace Of Clouds 7:10
3. From Every Orifice Of The Abyss 4:37
4. Greet The Dawn (For F) 8:08
5. Black Belly Of The Beast 8:32
6. The Storm Bells Chime 4:36
******************************
Total playing time: 34:53


(IMG:https://metalarea.org/images/youtube.png)

Technical info
(IMG:https://metalarea.org/images/spectrogram/2018_Apr/27e02cd8d8ee4269c0e6106565394033.png)
Input File: 02 Ascending to the embrace of clouds.mp3
Channels : 2
Sample Rate : 44100
Precision : 16-bit
Duration : 00:07:10.25 = 18974201 samples = 32269 CDDA sectors
File Size : 17.3M
Bit Rate : 321k
Sample Encoding: MPEG audio (layer I, II or III)
Comments :
Title=Ascending to the embrace of clouds
Artist=SOL
Album=The storm bells chime
Tracknumber=2
Year=2015
Genre=Drone Doom Metal



Register


Go to the top of the page
  Insert nick Quick quote
+Quote Post

Reply to this topicStart new topic
1 User(s) are reading this topic (1 Guests and 0 Anonymous Users)
0 Members:

 



- Lo-Fi Version Support form
Copyrights and abuse reports form
Time is now: 18th December 2018 - 20:08:31