Welcome Guest ( Log In | Register )

> Releases Upload / Добавление релизов

Добавить релиз тут / Click here to add release
Рекомендованные обменники / Recommended file shares

 
ОтветитьСоздать новую тему
> Maggot Fetus - Born At Lies (2018), Black Metal
post Apr 17 2018, 04:59:11
Post #1

Аннигилятор пивА
Group Icon
Group: V.I.P
Posts: 46,693
Releases: 14016
From: Koenigsberg - TILZIT
On Forums: 11 years 11 months
Thanks: 310917 time(s)
Russian Federation


(IMG:https://metalarea.org/images/audiocovers/2018_Apr/acov_tid304759_thumb.jpg)

*Artist: Maggot Fetus
*Album: Born At Lies
*Year: 2018
*Genre: Black Metal
*Country: Mexico (IMG:https://metalarea.org/forum/style_images/flags/Mexico.png)
*Format: mp3@CBR320kbps
*Size: 86MB

Tracklist:
1. The Codex Universe (Chapter 1) 01:54
2. Divine Implotion 04:51
3. World of Ends 05:14
4. Times Bastards 05:13
5. The Codex Universe (Chapter 2) 02:36
6. Sons of the Black Sun 04:54
7. Invoking the Ligths 04:21
8. Born at Lies 09:06
******************************
Total playing time: 38:09

Preview 1

Extended info
Josimar Garcia - Drums (2013-present)
Jhonatan Garcia - Guitars, Vocals, Bass (2013-present)


Technical info
(IMG:https://metalarea.org/images/spectrogram/2018_Apr/e4c57b377d5c6b476a6fca38c9a4f1ff.png)
Input File: 2 - Divine Implotion.mp3
Channels : 2
Sample Rate : 44100
Precision : 16-bit
Duration : 00:04:51.22 = 12842670 samples = 21841.3 CDDA sectors
File Size : 11.7M
Bit Rate : 323k
Sample Encoding: MPEG audio (layer I, II or III)
Comments :
Title=Divine Implotion
Artist=Maggot Fetus
Album=Born at Lies
Tracknumber=2/8
Year=2018
Genre=Black Metal
Discnumber=1/1



Register


Вернуться к началу страницы
  Insert nick Quick quote
+Цитировать сообщение

ОтветитьСоздать новую тему
1 User(s) are reading this topic (1 Guests and 0 Anonymous Users)
0 Members:

 



- Lo-Fi Version Support form
Copyrights and abuse reports form
Time is now: 27th May 2018 - 12:36:30