Welcome Guest ( Log In | Register )

> Lithica - Invokation Of Satan Within (2008), Black Metal
post Apr 17 2018, 15:20:28
Post #1

Serial Uploader
Group Icon
Group: V.I.P
Posts: 32,952
Releases: 31244
From: Lithuania
On Forums: 10 years 2 months
Thanks: 357685 time(s)
Lithuania


(IMG:https://metalarea.org/images/audiocovers/2018_Apr/acov_tid304789_thumb.jpg)

*Artist: Lithica
*Album: Invokation Of Satan Within
*Year: 2008
*Genre: Black Metal
*Country: Canada (IMG:https://metalarea.org/forum/style_images/flags/Canada.png)
*Format: mp3@VBR217kbps
*Size: 61MB

Tracklist:
01. Invokation Of Satan Within 03:49
02. Retaliation On Heaven 04:56
03. With Prosperity And All Power 05:03
04. Grominsloft (Essence Of The Devil’s Path) 03:46
05. Vigor Of The Satanic Mantra 05:55
06. Clairvoyance Of The Glorious Ruin 04:00
07. Beyond Humanity 05:02
08. Unrestrained Darkness 06:00
09. The Fires Of Purity 00:41
******************************
Total playing time: 39:12

(IMG:https://metalarea.org/images/myspace.png)

Extended info
Scene CD-rip


Technical info
(IMG:https://metalarea.org/images/spectrogram/2018_Apr/fd752bb0bb53051763307d73f7bc83eb.png)
Input File: 02-lithica-retaliation_on_heaven.mp3
Channels : 2
Sample Rate : 44100
Precision : 16-bit
Duration : 00:04:55.97 = 13052409 samples = 22198 CDDA sectors
File Size : 7.94M
Bit Rate : 215k
Sample Encoding: MPEG audio (layer I, II or III)
Comments :
Title=Retaliation on Heaven
Artist=Lithica
Album=Invokation of Satan Within
Tracknumber=2/9
Year=2008-00-00
Genre=Black Metal



Register


Go to the top of the page
  Insert nick Quick quote
+Quote Post
 
Start new topic
Replies (1 - 2)
post Aug 10 2018, 07:15:53
Post #2

Group: Подсевший
Posts: 27
Releases: 0
On Forums: 1 month 12 hours
Thanks: 3 time(s)
Serbia


REUPLOAD PLS
Go to the top of the page
  Insert nick Quick quote
+Quote Post
post Aug 10 2018, 18:48:52
Post #3

Восемь Литров
********
Group: Металариец
Posts: 890
Releases: 21
On Forums: 9 months 2 weeks
Thanks: 1637 time(s)
Unknown


VBR217kbps
Register
Go to the top of the page
  Insert nick Quick quote
+Quote Post

Reply to this topicStart new topic
1 User(s) are reading this topic (1 Guests and 0 Anonymous Users)
0 Members:

 



- Lo-Fi Version Support form
Copyrights and abuse reports form
Time is now: 21st August 2018 - 12:45:26