Welcome Guest ( Log In | Register )

> 

Здесь релизы с живыми прямыми ссылками на lossless

> Soliloquium - Catharsis [single] (2018), Doom/Death Metal (D6)
post Apr 17 2018, 16:35:13
Post #1

Семь Литров
*******
Group: Металариец
Posts: 790
Releases: 664
From: Новороссийск
On Forums: 7 years 1 month
Thanks: 11271 time(s)
Russian Federation


(IMG:https://metalarea.org/images/audiocovers/2018_Apr/acov_tid304797_thumb.jpg)

*Artist: Soliloquium
*Album: Catharsis [single]
*Year: 2018
*Genre: Doom/Death Metal
*Country: Sweden (IMG:https://metalarea.org/forum/style_images/flags/Sweden.png)
*Format: mp3@CBR320kbps
*Size: 12MB

Tracklist:
01. Catharsis 05:02
******************************
Total playing time: 5:02



Extended info
First single from Soliloquium's second full-length album "Contemplations". The album will be out June 1st, 2018 on Transcending Records.


Technical info
(IMG:https://metalarea.org/images/spectrogram/2018_Apr/b08b3c2858205f12aa811332b978d8cf.png)
Input File: 01. Catharsis.mp3
Channels : 2
Sample Rate : 44100
Precision : 16-bit
Duration : 00:05:02.71 = 13349599 samples = 22703.4 CDDA sectors
File Size : 12.1M
Bit Rate : 320k
Sample Encoding: MPEG audio (layer I, II or III)
Comments :
Title=Catharsis
Artist=Soliloquium
Album=Catharsis
Tracknumber=01
Year=2018
Genre=Doom Metal



Register

Register


Thanks:
Go to the top of the page
  Insert nick Quick quote
+Quote Post
 
Start new topic
Replies (1 - 1)
post Apr 18 2018, 03:19:45
Post #2

\m/
Group Icon
Group: S-moderation team
Posts: 7,407
Releases: 19
From: Петропавловск-Камчатский
On Forums: 9 years 1 week
Thanks: 6640 time(s)
Russian Federation


Added links by Necrokilldozer


Thanks:
Go to the top of the page
  Insert nick Quick quote
+Quote Post

Reply to this topicStart new topic
2 User(s) are reading this topic (2 Guests and 0 Anonymous Users)
0 Members:

 



- Lo-Fi Version Support form
Copyrights and abuse reports form
Time is now: 20th June 2018 - 14:17:14