Welcome Guest ( Log In | Register )

> Releases Upload / Добавление релизов

Добавить релиз тут / Click here to add release
Рекомендованные обменники / Recommended file shares

 
ОтветитьСоздать новую тему
> Metal Life Crisis - All When Youth Was King (2018), Progressive/Doom/Heavy Metal
post Apr 18 2018, 10:49:58
Post #1

Аннигилятор пивА
Group Icon
Group: V.I.P
Posts: 46,693
Releases: 14016
From: Koenigsberg - TILZIT
On Forums: 11 years 11 months
Thanks: 310917 time(s)
Russian Federation


(IMG:https://metalarea.org/images/audiocovers/2018_Apr/acov_tid304823_thumb.jpg)

*Artist: Metal Life Crisis
*Album: All When Youth Was King
*Year: 2018
*Genre: Progressive/Doom/Heavy Metal
*Country: United States (IMG:https://metalarea.org/forum/style_images/flags/United%20States.png)
*Format: mp3@CBR320kbps
*Size: 95MB

Tracklist:
01. Man Without A Face
02. Metal Life Crisis
03. Blud (On The Sand)
04. All When Youth Was King
05. Eco-Drain
06. Namuh
07. Famine Grip (Intro)
08. Famine Grip
09. Monsters Feed
10. E.Y.E.
11. Started With Screaming
12. Ink
13. Sew My Mouth Shut
******************************
Total playing time: 43:53



Extended info
Шикарный олдскул на стыке перечисленных жанров
Shawn Kaiser/Lead Guitar
Gerald Franklin/Vocals
Mark Yard/Bass Guitar
Kevin Dixon/Drums




Technical info
(IMG:https://metalarea.org/images/spectrogram/2018_Apr/27ec679fd332437d960c7c59f1ba3864.png)
Input File: 01 - Metal life crisis - Man without a face.mp3
Channels : 2
Sample Rate : 44100
Precision : 16-bit
Duration : 00:03:18.71 = 8763067 samples = 14903.2 CDDA sectors
File Size : 8.10M
Bit Rate : 326k
Sample Encoding: MPEG audio (layer I, II or III)
Comments :
Title=Man without a face
Artist=Metal life crisis
Album=All when youth was king
Tracknumber=1/13
Year=2018



Register


Вернуться к началу страницы
  Insert nick Quick quote
+Цитировать сообщение

ОтветитьСоздать новую тему
1 User(s) are reading this topic (1 Guests and 0 Anonymous Users)
0 Members:

 



- Lo-Fi Version Support form
Copyrights and abuse reports form
Time is now: 27th May 2018 - 12:28:10