Welcome Guest ( Log In | Register )

> Assumption - Absconditus (2018), Doom/Death Metal
post Apr 19 2018, 12:33:19
Post #1

Serial Uploader
Group Icon
Group: V.I.P
Posts: 37,612
Releases: 35784
From: Lithuania
On Forums: 13 years 3 months
Thanks: 433535 time(s)
Lithuania


(IMG:https://metalarea.org/images/audiocovers/2018_Apr/acov_tid304874_thumb.jpg)

*Artist: Assumption
*Album: Absconditus
*Year: 2018
*Genre: Doom/Death Metal
*Country: Italy (IMG:https://metalarea.org/forum/style_images/flags/Italy.png)
*Format: mp3@CBR320kbps
*Size: 84MB

Tracklist:
01. Liberation 15:31
02. Resurgence 06:13
03. Beholder Of The Asteroid Oceans (Part I & II) 15:08
******************************
Total playing time: 36:52




Technical info
(IMG:https://metalarea.org/images/spectrogram/2018_Apr/07fa56ad86d2710ea922f66034681820.png)
Input File: 02. Resurgence.mp3
Channels : 2
Sample Rate : 44100
Precision : 16-bit
Duration : 00:06:13.30 = 16462442 samples = 27997.4 CDDA sectors
File Size : 15.1M
Bit Rate : 323k
Sample Encoding: MPEG audio (layer I, II or III)
Comments :
Title=Resurgence
Artist=Assumption
Album=Absconditus
Tracknumber=2/3
Year=2018
Discnumber=1/1



Register


Go to the top of the page
  Insert nick Quick quote
+Quote Post
 
Start new topic
Replies (1 - 4)
post Apr 19 2018, 14:35:00
Post #2

Правь статус, ####!111
**************
Group: Металариец
Posts: 27,424
Releases: 19881
From: Г.Харьков
On Forums: 9 years 4 months
Thanks: 401048 time(s)
Unknown


Register


Go to the top of the page
  Insert nick Quick quote
+Quote Post
post Apr 19 2018, 18:44:27
Post #3

Совки, гулаги, дефициты
***********
Group: Металариец
Posts: 1,762
Releases: 0
From: Беларусь, Минск
On Forums: 14 years 2 months
Thanks: 889 time(s)
Belarus


Хороший, без соплей.
Go to the top of the page
  Insert nick Quick quote
+Quote Post
post Apr 19 2018, 20:09:48
Post #4

####!111
**************
Group: Металариец
Posts: 4,472
Releases: 134
From: The Mountain Of DOOM
On Forums: 13 years 11 months
Thanks: 6283 time(s)
Russian Federation


КанонiчноЪ, но с большим успехом можно переслушать ранний Evoken
Go to the top of the page
  Insert nick Quick quote
+Quote Post
post May 17 2021, 17:20:37
Post #5

threat
******
Group: Металариец
Posts: 648
Releases: 0
On Forums: 15 years 1 month
Thanks: 86 time(s)
Turkey


Register


This post has been edited by Borderline1991: May 18 2021, 05:55:12
Reason for edit: hide


Thanks:
Go to the top of the page
  Insert nick Quick quote
+Quote Post

Reply to this topicStart new topic
1 User(s) are reading this topic (1 Guests and 0 Anonymous Users)
0 Members:

 



- Lo-Fi Version Support form
Copyrights and abuse reports form
Time is now: 24th September 2021 - 06:59:54