Welcome Guest ( Log In | Register )

> Uaigneas - Teamhair [single] (2018), Folk Metal
post Apr 19 2018, 21:00:23
Post #1

####!111
**************
Group: Металариец
Posts: 3,639
Releases: 124
From: The Mountain Of DOOM
On Forums: 10 years 11 months
Thanks: 5099 time(s)
Russian Federation


(IMG:https://metalarea.org/images/audiocovers/2018_Apr/acov_tid304913_thumb.jpg)

*Artist: Uaigneas
*Album: Teamhair [single]
*Year: 2018
*Genre: Folk Metal
*Country: Ireland (IMG:https://metalarea.org/forum/style_images/flags/Ireland.png)
*Format: mp3@CBR320kbps
*Size: 35MB

Tracklist:
1. Teamhair 13:26
******************************
Total playing time: 13:26



Extended info
Project of ex-Mael Mordha vocalist

Parts:
I. Lia Fáil
II. Teamhair
III. The Sorrows
IV. Graves
V. Broken Things


Technical info
(IMG:https://metalarea.org/images/spectrogram/2018_Apr/b2f1856cc27027374843f18127e85c69.png)
Input File: 01 Teamhair.mp3
Channels : 2
Sample Rate : 44100
Precision : 16-bit
Duration : 00:13:26.40 = 35562240 samples = 60480 CDDA sectors
File Size : 32.3M
Bit Rate : 321k
Sample Encoding: MPEG audio (layer I, II or III)
Comments :
Title=Teamhair
Artist=Uaigneas
Album=Teamhair
Tracknumber=1
Year=2018
Genre=Folk Doom Metal



Register


Go to the top of the page
  Insert nick Quick quote
+Quote Post
 
Start new topic
Replies (1 - 1)
post May 16 2018, 12:44:18
Post #2

No More Tears
**************
Group: Металариец
Posts: 4,933
Releases: 115
From: Тбилиси, Грузия
On Forums: 12 years 1 month
Thanks: 2345 time(s)
Georgia


ex-Mael Mordha vocalist это просто великолепно!
Надо попробовать.
Go to the top of the page
  Insert nick Quick quote
+Quote Post

Reply to this topicStart new topic
2 User(s) are reading this topic (2 Guests and 0 Anonymous Users)
0 Members:

 



- Lo-Fi Version Support form
Copyrights and abuse reports form
Time is now: 20th September 2018 - 13:16:13