Welcome Guest ( Log In | Register )

> Releases Upload / Добавление релизов

Добавить релиз тут / Click here to add release
Рекомендованные обменники / Recommended file shares

> Euphoreon - Ends Of The Earth (2018), Symphonic Melodic Death Metal
post Apr 19 2018, 22:53:14
Post #1

Правь статус, ####!111
**************
Group: Металариец
Posts: 13,011
Releases: 9249
From: Г.Харьков
On Forums: 6 years 1 week
Thanks: 150323 time(s)
Unknown


(IMG:http://metalarea.org/images/audiocovers/2018_Apr/acov_tid304914_thumb.jpg)

*Artist: Euphoreon
*Album: Ends Of The Earth
*Year: 2018
*Genre: Symphonic Melodic Death Metal
*Country: New Zealand (IMG:http://metalarea.org/forum/style_images/flags/New%20Zealand.png)
*Format: mp3@CBR320kbps
*Size: 101MB

Tracklist:
1. Euphoria 05:36
2. Ends of the Earth 05:29
3. Zero Below the Sun 08:34
4. Mirrors 06:31
5. Cravenness 06:00
6. Oblivion 07:48
7. The Grand Becoming 07:59
******************************
Total playing time: 47:57




Extended info
International - New Zealand / Germany
Eugen Dodenhoeft Bass, Vocals, Guitars (rhythm), Drums
See also: Far Beyond, ex-Ecthirion
Matt Summerville Guitars (lead), Vocals


Technical info
(IMG:http://metalarea.org/images/spectrogram/2018_Apr/2ccd2f49b063d611a744ebe9eb1e8fa4.png)
Input File: 02. Ends of the Earth.mp3
Channels : 2
Sample Rate : 44100
Precision : 16-bit
Duration : 00:05:29.52 = 14531656 samples = 24713.7 CDDA sectors
File Size : 13.3M
Bit Rate : 322k
Sample Encoding: MPEG audio (layer I, II or III)
Comments :
Title=Ends of the Earth
Artist=Euphoreon
Album=Ends of the Earth
Tracknumber=2/7
Year=2018
Genre=9
Discnumber=1/1



Register


Вернуться к началу страницы
  Insert nick Quick quote
+Цитировать сообщение
 
Создать новую тему
Replies (1 - 5)
post Apr 20 2018, 10:30:10
Post #2

MDM-Thrash Metal
**************
Group: Металариец
Posts: 6,672
Releases: 410
From: Одесса
On Forums: 10 years 9 months
Thanks: 12734 time(s)
Ukraine


Хорошая новость. Помниться, что дебютный альбом 2011 года очень даже порадовал.
Register


Вернуться к началу страницы
  Insert nick Quick quote
+Цитировать сообщение
post Apr 20 2018, 20:25:08
Post #3

Маньяк
**********
Group: Металариец
Posts: 1,073
Releases: 0
From: Russian Federation - St.Petersburg
On Forums: 9 years 2 months
Thanks: 220 time(s)
Russian Federation


И обложка и музон в кайф! (IMG:style_emoticons/default/20.gif) Классная такая "Енси-Винтер-Бурговщина"! (IMG:style_emoticons/default/smile1.gif)
Вернуться к началу страницы
  Insert nick Quick quote
+Цитировать сообщение
post Apr 20 2018, 20:39:04
Post #4

Волк без яблока
**************
Group: Металариец
Posts: 12,937
Releases: 101
From: Санкт-Петербург
On Forums: 11 years 7 months
Thanks: 14457 time(s)
Russian Federation


Это странно, но даже первый был лучше, а ведь ему сколько лет уже. Тут какая-то игра без музыки.


Thanks:
Вернуться к началу страницы
  Insert nick Quick quote
+Цитировать сообщение
post Apr 22 2018, 09:59:18
Post #5

Тридцать лет на борту "Тяжёлого" крейсера
***********
Group: Металариец
Posts: 1,727
Releases: 0
From: Питер
On Forums: 10 years 11 months
Thanks: 367 time(s)
Russian Federation


Прошлый не помню (по всей видимости, ничего интересного не было в релизе), но здесь, да, "какая-то игра без музыки"
Собрались пацаны, а, давайте, потренькаем, авось чего и выйдет
Не вышло, как по мне
Вернуться к началу страницы
  Insert nick Quick quote
+Цитировать сообщение
post May 16 2018, 16:14:27
Post #6

No More Tears
**************
Group: Металариец
Posts: 4,929
Releases: 115
From: Тбилиси, Грузия
On Forums: 11 years 10 months
Thanks: 2333 time(s)
Georgia


По моему в 2018 году поздно уже такое сочинять. Хотя эта работа гораздо лучше многих сегодняшних.


Thanks:
(1) MeatWolf,
Вернуться к началу страницы
  Insert nick Quick quote
+Цитировать сообщение

ОтветитьСоздать новую тему
2 User(s) are reading this topic (2 Guests and 0 Anonymous Users)
0 Members:

 



- Lo-Fi Version Support form
Copyrights and abuse reports form
Time is now: 24th May 2018 - 12:59:17