Welcome Guest ( Log In | Register )

> И неформату есть предел.

Рэп/хип-хоп/шансон/поп удаляются. Для них есть свои порталы.

 
Reply to this topicStart new topic
> Bulldozer & DJ Sick And Dr. D.O.P.E. - Yum Yum [collaboration] (1993), Thrash Meta | Rap & Techno
post Apr 25 2018, 03:44:08
Post #1

Девять Литров
*********
Group: Металариец
Posts: 977
Releases: 370
On Forums: 7 years 7 months
Thanks: 8013 time(s)
North Korea


(IMG:http://metalarea.org/images/audiocovers/2018_Apr/acov_tid305111_thumb.JPG)

*Artist: Bulldozer & DJ Sick And Dr. D.O.P.E.
*Album: Yum Yum [collaboration]
*Year: 1993
*Genre: Thrash Meta | Rap & Techno
*Country: Italy (IMG:http://metalarea.org/forum/style_images/flags/Italy.png) | Italy (IMG:http://metalarea.org/forum/style_images/flags/Italy.png)
*Format: mp3@CBR320kbps
*Size: 46MB

Tracklist:
1. Yum Yum (Extended V2) 05:30
2. Yum Yum (Instrumental) 04:40
3. Yum Yum (Adult Only Mix) 04:20
4. Yum Yum (Extended V1) 05:30
******************************
Total playing time: 20:00

Extended info
12" vinyl


Technical info
(IMG:http://metalarea.org/images/spectrogram/2018_Apr/ed2f1c63e8441f4260b972949db76ff4.png)
Input File: 01 yum yum - - Senza Titolo1.mp3
Channels : 2
Sample Rate : 44100
Precision : 16-bit
Duration : 00:01:15.05 = 3309661 samples = 5628.68 CDDA sectors
File Size : 3.00M
Bit Rate : 320k
Sample Encoding: MPEG audio (layer I, II or III)



Register


Go to the top of the page
  Insert nick Quick quote
+Quote Post

Reply to this topicStart new topic
1 User(s) are reading this topic (1 Guests and 0 Anonymous Users)
0 Members:

 



- Lo-Fi Version Support form
Copyrights and abuse reports form
Time is now: 23rd June 2018 - 03:43:59