Welcome Guest ( Log In | Register )

> И неформату есть предел.

Рэп/хип-хоп/шансон/поп удаляются. Для них есть свои порталы.

 
Reply to this topicStart new topic
> Bulldozer & Dr. D.O.P.E. - I Wanna Go Up! [collaboration] (1994), Thrash Metal | Rap & Techno
post Apr 25 2018, 03:51:24
Post #1

Девять Литров
*********
Group: Металариец
Posts: 977
Releases: 370
On Forums: 7 years 7 months
Thanks: 8013 time(s)
North Korea


(IMG:http://metalarea.org/images/audiocovers/2018_Apr/acov_tid305112_thumb.JPG)

*Artist: Bulldozer & Dr. D.O.P.E.
*Album: I Wanna Go Up! [collaboration]
*Year: 1994
*Genre: Thrash Metal | Rap & Techno
*Country: Italy (IMG:http://metalarea.org/forum/style_images/flags/Italy.png) | Italy (IMG:http://metalarea.org/forum/style_images/flags/Italy.png)
*Format: mp3@CBR320kbps
*Size: 28MB

Tracklist:
1. I Wanna Go Up! (Shuttle Extended Mix) 04:55
2. I Wanna Go Up! (FM Version) 03:05
3. I Wanna Go Up! (Playback) 03:05
4. I Wanna Go Up! (Bonus) 01:00
******************************
Total playing time: 12:05

Extended info
12" vinyl (45 RPM)


Technical info
(IMG:http://metalarea.org/images/spectrogram/2018_Apr/9e182ad9f60aff6c18680a891fa840f3.png)
Input File: 01 I wanna go up - - Senza Titolo1.mp3
Channels : 2
Sample Rate : 44100
Precision : 16-bit
Duration : 00:01:15.05 = 3309661 samples = 5628.68 CDDA sectors
File Size : 3.00M
Bit Rate : 320k
Sample Encoding: MPEG audio (layer I, II or III)



Register


Go to the top of the page
  Insert nick Quick quote
+Quote Post

Reply to this topicStart new topic
2 User(s) are reading this topic (2 Guests and 0 Anonymous Users)
0 Members:

 



- Lo-Fi Version Support form
Copyrights and abuse reports form
Time is now: 23rd June 2018 - 18:25:48