Welcome Guest ( Log In | Register )

> И неформату есть предел.

Рэп/хип-хоп/шансон/поп удаляются. Для них есть свои порталы.

 
Reply to this topicStart new topic
> Trobar De Morte - Ouroboros (2016), Medieval Folk
post Apr 26 2018, 00:34:00
Post #1

Семь Литров
*******
Group: Металариец
Posts: 708
Releases: 2
From: Moscow
On Forums: 12 years 1 week
Thanks: 132 time(s)
Russian Federation


(IMG:http://metalarea.org/images/audiocovers/2018_Apr/acov_tid305147_thumb.jpg)

*Artist: Trobar De Morte
*Album: Ouroboros
*Year: 2016
*Genre: Medieval Folk
*Country: Spain (IMG:http://metalarea.org/forum/style_images/flags/Spain.png)
*Format: mp3@CBR320kbps
*Size: 119MB

Tracklist:
1. Summoning The Gods 04:12
2. Idunn 04:33
3. The Wolf 03:21
4. Yggdrasil 04:39
5. While the Field is Green 03:13
6. Vision Dream 05:01
7. The Mystic Path 04:43
8. In Laudem Bacchi 03:21
9. Destiny 03:41
10. The Voice of The Eternity 01:55
11. Ouroboros 03:25
12. The Serpent 03:05
13. Völuspá 04:34
******************************
Total playing time: 49:43




Extended info
Trobar de Morte played and recorded the next instruments:
Keyboards, Voices, Hurdy Gurdy, percussion, flute (song 4), bells and
tambourines by Lady Morte.
Bass by Armand.
Flutes and Whistles by Jose Luis Frías in songs 1,4,5,8,9
Flutes and Whistles in songs 3, 7 by Üri Bokskog
Acoustic Guitars and Bouzouki by Daimoniel
All Violins by Asenath except violins in songs 1 & 9 by Marta Ponce
Backing vocals in songs 4 & 7 by Asenath
Oriental Percussions ( Djembe, Doholla, Frame Drum, Bendir,Riq, Darbouka, Ghungroo, Tombak, Maya keys,Tibetan Bowl) by Sined Zulim.


Technical info
(IMG:http://metalarea.org/images/spectrogram/2018_Apr/2634fc43ee759d7f14faa78adf8be2e0.png)
Input File: 01 - Trobar De Morte - Summoning The Gods.mp3
Channels : 2
Sample Rate : 44100
Precision : 16-bit
Duration : 00:04:12.60 = 11139704 samples = 18945.1 CDDA sectors
File Size : 10.1M
Bit Rate : 320k
Sample Encoding: MPEG audio (layer I, II or III)
Comments :
Title=Summoning The Gods
Artist=Trobar De Morte
Album=Ouroboros
Tracknumber=01
Year=2016
Genre=Dark Folk



Register


Go to the top of the page
  Insert nick Quick quote
+Quote Post

Reply to this topicStart new topic
1 User(s) are reading this topic (1 Guests and 0 Anonymous Users)
0 Members:

 



- Lo-Fi Version Support form
Copyrights and abuse reports form
Time is now: 20th October 2018 - 07:40:58