Welcome Guest ( Log In | Register )

> И неформату есть предел.

Рэп/хип-хоп/шансон/поп удаляются. Для них есть свои порталы.

 
Reply to this topicStart new topic
> Rob Zombie - Astro-Creep: 2000 Live - Songs Of Love, Destruction And Other Synthetic Delusions Of The Electric Head [live] (2018), Industrial Metal (D11)
post Apr 26 2018, 10:38:27
Post #1

Шесть Литров
******
Group: Металариец
Posts: 529
Releases: 27
On Forums: 4 years 9 months
Thanks: 928 time(s)
Unknown


(IMG:http://metalarea.org/images/audiocovers/2018_Apr/acov_tid305178_thumb.jpg)

*Artist: Rob Zombie
*Album: Astro-Creep: 2000 Live - Songs Of Love, Destruction And Other Synthetic Delusions Of The Electric Head [live]
*Year: 2018
*Genre: Industrial Metal
*Country: United States (IMG:http://metalarea.org/forum/style_images/flags/United%20States.png)
*Format: mp3@CBR320kbps
*Size: 105MB

Tracklist:
01. Electric Head Pt. 1 (The Agony) 05:13
02. Super-Charger Heaven 03:41
03. Real Solution #9 04:32
04. Creature Of The Wheel 03:32
05. Electric Head Pt. 2 (The Ecstasy) 03:58
06. Grease Paint And Monkey Brains 04:01
07. I, Zombie 03:34
08. More Human Than Human 04:22
09. El Phantasmo And The Chicken-Run Blast-O-Rama 03:57
10. Blur The Technicolor 03:57
11. Blood, Milk And Sky 05:20
******************************
Total playing time: 46:07

Extended info
Source - web


Technical info
(IMG:http://metalarea.org/images/spectrogram/2018_Apr/176869ba32d205f0c6d9ab9eae253f77.png)
Input File: 08-rob_zombie-more_human_than_human.mp3
Channels : 2
Sample Rate : 44100
Precision : 16-bit
Duration : 00:04:22.43 = 11573031 samples = 19682 CDDA sectors
File Size : 10.5M
Bit Rate : 320k
Sample Encoding: MPEG audio (layer I, II or III)
Comments :
Title=More Human Than Human (Live At Riot Fest / 2016)
Artist=Rob Zombie
Album=Astro-Creep: 2000 Live-Songs Of Love, Destruction And Other Synthetic Delusions Of The Electric Head
Tracknumber=8/11
Year=2018
Genre=9



Register


Go to the top of the page
  Insert nick Quick quote
+Quote Post

Reply to this topicStart new topic
1 User(s) are reading this topic (1 Guests and 0 Anonymous Users)
0 Members:

 



- Lo-Fi Version Support form
Copyrights and abuse reports form
Time is now: 16th August 2018 - 11:24:59