Welcome Guest ( Log In | Register )

> Crystal Ball - Crystallizer (2018), Melodic Power Metal
post Apr 26 2018, 13:28:04
Post #1

Serial Uploader
Group Icon
Group: V.I.P
Posts: 37,532
Releases: 35706
From: Lithuania
On Forums: 12 years 10 months
Thanks: 431368 time(s)
Lithuania


(IMG:https://metalarea.org/images/audiocovers/2018_Apr/acov_tid305195_thumb.jpg)

*Artist: Crystal Ball
*Album: Crystallizer
*Year: 2018
*Genre: Melodic Power Metal
*Country: Switzerland (IMG:https://metalarea.org/forum/style_images/flags/Switzerland.png)
*Format: mp3@CBR320kbps
*Size: 108MB

Tracklist:
01. Crystallizer 03:56
02. Curtain Call 03:33
03. Alive For Evermore 03:47
04. S.O.S. 03:58
05. Crazy In The Night 03:07
06. Gentleman's Agreement 04:16
07. Let Her Go With Love 03:00
08. Beauty In The Beast 04:02
09. Death On Holy Ground 04:33
10. Satisfaction Guaranteed (Bonus Track) 04:04
11. Exit Wound (Bonus Track) 04:37
12. Dusty Deadly 03:17
13. Symphony Of Life 05:02
******************************
Total playing time: 51:12

(IMG:https://metalarea.org/images/myspace.png)


Technical info
(IMG:https://metalarea.org/images/spectrogram/2018_Apr/383537aaa4c6e2cb0283eef20225c3e9.png)
Input File: 02. Curtain Call.mp3
Channels : 2
Sample Rate : 44100
Precision : 16-bit
Duration : 00:03:33.26 = 9404766 samples = 15994.5 CDDA sectors
File Size : 8.62M
Bit Rate : 323k
Sample Encoding: MPEG audio (layer I, II or III)
Comments :
Title=Curtain Call
Artist=Crystal Ball
Album=Crystallizer
Tracknumber=2/13
Year=2018
Genre=17
Discnumber=1/1



Register


Go to the top of the page
  Insert nick Quick quote
+Quote Post
 
Start new topic
Replies (1 - 4)
post Apr 26 2018, 17:49:09
Post #2

Правь статус, ####!111
**************
Group: Металариец
Posts: 25,711
Releases: 18394
From: Г.Харьков
On Forums: 8 years 11 months
Thanks: 362815 time(s)
Unknown


Register


Go to the top of the page
  Insert nick Quick quote
+Quote Post
post Apr 26 2018, 19:47:35
Post #3

Dark Ambient Shoujo
**********
Group: Металариец
Posts: 1,368
Releases: 2
On Forums: 12 years 3 months
Thanks: 815 time(s)
Russian Federation


Go to the top of the page
  Insert nick Quick quote
+Quote Post
post Apr 26 2018, 20:56:13
Post #4

MDM-Thrash Metal
**************
Group: Металариец
Posts: 10,274
Releases: 1215
From: Одесса
On Forums: 13 years 8 months
Thanks: 29776 time(s)
Ukraine


Go to the top of the page
  Insert nick Quick quote
+Quote Post
post May 17 2018, 20:00:33
Post #5

Old School Metal
**************
Group: Металариец
Posts: 3,635
Releases: 0
From: г. Минск
On Forums: 12 years 3 weeks
Thanks: 8363 time(s)
Belarus


(IMG:http://raritetno.com/uploads/posts/2018-05/1526487919_01-kopie.jpg)


Lossless: FLAC (image+.cue+.log) + Covers


Register
Go to the top of the page
  Insert nick Quick quote
+Quote Post

Reply to this topicStart new topic
1 User(s) are reading this topic (1 Guests and 0 Anonymous Users)
0 Members:

 



- Lo-Fi Version Support form
Copyrights and abuse reports form
Time is now: 14th April 2021 - 14:48:01