Welcome Guest ( Log In | Register )

> И неформату есть предел.

Рэп/хип-хоп/шансон/поп удаляются. Для них есть свои порталы.

> The Armed - Only Love (2018), Avant-Garde Black Metal/Mathcore/Post-Punk/Electroclash/Shoegaze
post Apr 26 2018, 13:53:08
Post #1

Правь статус, ####!111
**************
Group: Металариец
Posts: 2,713
Releases: 726
On Forums: 7 years 9 months
Thanks: 9551 time(s)
Ukraine


(IMG:https://metalarea.org/images/audiocovers/2018_Apr/acov_tid305198_thumb.jpg)

*Artist: The Armed
*Album: Only Love
*Year: 2018
*Genre: Avant-Garde Black Metal/Mathcore/Post-Punk/Electroclash/Shoegaze
*Country: United States (IMG:https://metalarea.org/forum/style_images/flags/United%20States.png)
*Format: mp3@CBR320kbps
*Size: 96MB

Tracklist:
1. Witness 03:08
2. Role Models 02:52
3. Nowhere to Be Found 02:21
4. Apperception 01:50
5. Parody Warning 02:05
6. Fortune's Daughter 03:29
7. Luxury Themes 05:18
8. Heavily Lined 02:27
9. Middle Homes 03:54
10. Ultraglass 03:22
11. On Jupiter 07:37
******************************
Total playing time: 38:23

(IMG:https://metalarea.org/images/youtube.png)



Extended info


Technical info
(IMG:https://metalarea.org/images/spectrogram/2018_Apr/4a5f9bf77d11b124c7c2483690e4b2c5.png)
Input File: 01 - Witness.mp3
Channels : 2
Sample Rate : 44100
Precision : 16-bit
Duration : 00:03:08.96 = 8333312 samples = 14172.3 CDDA sectors
File Size : 8.35M
Bit Rate : 353k
Sample Encoding: MPEG audio (layer I, II or III)
Comments :
Title=Witness
Artist=The Armed
Album=Only Love
Tracknumber=1/11
Year=2018
Genre=Mathcore
Discnumber=1/1



Register


Go to the top of the page
  Insert nick Quick quote
+Quote Post
 
Start new topic
Replies (1 - 4)
post Apr 27 2018, 07:23:39
Post #2

Правь статус, ####!111
**************
Group: Металариец
Posts: 2,713
Releases: 726
On Forums: 7 years 9 months
Thanks: 9551 time(s)
Ukraine


а чего Liturgy в нефомрат не запилили, а?
Go to the top of the page
  Insert nick Quick quote
+Quote Post
post Apr 28 2018, 08:15:26
Post #3

стазис эпидерсис
***********
Group: Металариец
Posts: 1,800
Releases: 0
On Forums: 2 years 4 months
Thanks: 1100 time(s)
Unknown


В контакте пишут что хардкор)
Go to the top of the page
  Insert nick Quick quote
+Quote Post
post Apr 28 2018, 08:18:51
Post #4

South Of Heaven /адепт ВУДУ
**************
Group: Металариец
Posts: 12,541
Releases: 7
From: Санкт-Петербург
On Forums: 8 years 2 months
Thanks: 4507 time(s)
Russian Federation


ЦИТАТА(garmonbozia @ Apr 28 2018, 10:15:26) *
В контакте пишут что хардкор)

ЦИТАТА
Avant-Garde Black Metal/Mathcore/Post-Punk/Electroclash/Shoegaze

Когда столько всего много, то с трудом верится, что это правда (IMG:style_emoticons/default/1488.gif)
Go to the top of the page
  Insert nick Quick quote
+Quote Post
post Apr 29 2018, 11:54:42
Post #5

Dark Ambient Shoujo
*********
Group: Металариец
Posts: 982
Releases: 1
On Forums: 9 years 5 months
Thanks: 483 time(s)
Russian Federation


ЦИТАТА(avkruchinin @ 28th April 2018 - 10:18:51) *
Когда столько всего много, то с трудом верится, что это

не релиз Эстетика.
fftgj


Thanks:
(1) Ghostb,
Go to the top of the page
  Insert nick Quick quote
+Quote Post

Reply to this topicStart new topic
1 User(s) are reading this topic (1 Guests and 0 Anonymous Users)
0 Members:

 



- Lo-Fi Version Support form
Copyrights and abuse reports form
Time is now: 23rd June 2018 - 18:23:36