Welcome Guest ( Log In | Register )

> Pact - Enigmata (2018), Black Metal
post Apr 28 2018, 11:25:15
Post #1

Serial Uploader
Group Icon
Group: V.I.P
Posts: 35,606
Releases: 33815
From: Lithuania
On Forums: 11 years 1 month
Thanks: 389361 time(s)
Lithuania


(IMG:https://metalarea.org/images/audiocovers/2018_Apr/acov_tid305297_thumb.jpg)

*Artist: Pact
*Album: Enigmata
*Year: 2018
*Genre: Black Metal
*Country: United States (IMG:https://metalarea.org/forum/style_images/flags/United%20States.png)
*Format: mp3@CBR320kbps
*Size: 103MB

Tracklist:
01. Dark Templar 04:43
02. Son Of Cush 03:06
03. Edict Of Anu 04:06
04. Hag And The Sleeper 03:34
05. Cradle Of Decay 04:35
06. Stalking From The Shadows 04:10
07. Call Of The Wild 03:16
08. Collider 04:36
09. Eternal Keeper Of The Black Flame 03:10
10. Sorrows Embrace 06:28
11. Enigmata Of Erebus 07:31
******************************
Total playing time: 49:15



(IMG:https://metalarea.org/images/youtube.png)

Technical info
(IMG:https://metalarea.org/images/spectrogram/2018_Apr/1bc228e9546d4d3ac2d7765b380f50ec.png)
Input File: 02-pact-son_of_cush-f573e07a.mp3
Channels : 2
Sample Rate : 44100
Precision : 16-bit
Duration : 00:03:06.09 = 8206569 samples = 13956.8 CDDA sectors
File Size : 7.55M
Bit Rate : 324k
Sample Encoding: MPEG audio (layer I, II or III)
Comments :
Title=Son of Cush
Artist=Pact
Album=Enigmata
Tracknumber=2/11
Year=2018
Genre=138



Register


Go to the top of the page
  Insert nick Quick quote
+Quote Post
 
Start new topic
Replies (1 - 3)
post Apr 29 2018, 13:26:06
Post #2

кручу наждак
**************
Group: Металариец
Posts: 3,944
Releases: 96
From: Самара
On Forums: 9 years 2 months
Thanks: 2931 time(s)
Russian Federation


Безыдейная долба в основном, но несколько треков в середине альбома понравились из-за дэтовых элементов.
Go to the top of the page
  Insert nick Quick quote
+Quote Post
post Apr 29 2018, 14:41:17
Post #3

MDM-Thrash Metal
**************
Group: Металариец
Posts: 8,328
Releases: 493
From: Одесса
On Forums: 11 years 11 months
Thanks: 15754 time(s)
Ukraine


Register
Go to the top of the page
  Insert nick Quick quote
+Quote Post
post Jun 22 2019, 21:28:41
Post #4

Правь статус, ####!111
**************
Group: Металариец
Posts: 6,489
Releases: 164
From: URUGUAY
On Forums: 12 years 9 months
Thanks: 16438 time(s)
Uruguay


320
Register
Go to the top of the page
  Insert nick Quick quote
+Quote Post

Reply to this topicStart new topic
1 User(s) are reading this topic (1 Guests and 0 Anonymous Users)
0 Members:

 



- Lo-Fi Version Support form
Copyrights and abuse reports form
Time is now: 17th July 2019 - 06:05:22