Welcome Guest ( Log In | Register )

> Dylan Carlson - Conquistador (2018), Drone/Doom Metal
post Apr 28 2018, 12:15:17
Post #1

Serial Uploader
Group Icon
Group: V.I.P
Posts: 33,121
Releases: 31406
From: Lithuania
On Forums: 10 years 4 months
Thanks: 359182 time(s)
Lithuania


(IMG:https://metalarea.org/images/audiocovers/2018_Apr/acov_tid305304_thumb.jpg)

*Artist: Dylan Carlson
*Album: Conquistador
*Year: 2018
*Genre: Drone/Doom Metal
*Country: United States (IMG:https://metalarea.org/forum/style_images/flags/United%20States.png)
*Format: mp3@CBR320kbps
*Size: 75MB

Tracklist:
01. Conquistador 13:12
02. When The Horses Were Shorn Of Their Hooves 05:45
03. And Then The Crows Descended 01:01
04. Scorpions In Their Mouths 05:46
05. Reaching The Gulf 06:24
******************************
Total playing time: 32:08



(IMG:https://metalarea.org/images/youtube.png)

Technical info
(IMG:https://metalarea.org/images/spectrogram/2018_Apr/cbaecf9ab1c742abf8b004064dfcb4f1.png)
Input File: 03. And Then the Crows Descended.mp3
Channels : 2
Sample Rate : 44100
Precision : 16-bit
Duration : 00:01:01.34 = 2705138 samples = 4600.57 CDDA sectors
File Size : 2.46M
Bit Rate : 320k
Sample Encoding: MPEG audio (layer I, II or III)
Comments :
Title=And Then the Crows Descended
Artist=Dylan Carlson
Album=Conquistador
Tracknumber=03/05
Year=2018
Discnumber=1/1



Register


Go to the top of the page
  Insert nick Quick quote
+Quote Post
 
Start new topic
Replies (1 - 1)
post Jun 25 2018, 07:28:37
Post #2

Group: Подсевший
Posts: 12
Releases: 0
From: Бийск
On Forums: 9 months 4 weeks
Thanks: 1 time(s)
Russian Federation


Добротная вещичка! Этакий drone blues получился. (IMG:style_emoticons/default/20.gif)
Go to the top of the page
  Insert nick Quick quote
+Quote Post

Reply to this topicStart new topic
2 User(s) are reading this topic (2 Guests and 0 Anonymous Users)
0 Members:

 



- Lo-Fi Version Support form
Copyrights and abuse reports form
Time is now: 16th October 2018 - 06:23:45