Welcome Guest ( Log In | Register )

> И неформату есть предел.

Рэп/хип-хоп/шансон/поп удаляются. Для них есть свои порталы.

> Лихолесье - Сказы [ep] (2018), Dark Ambient/Folk (D8)
post Apr 28 2018, 13:10:53
Post #1

Правь статус, ####!616
**************
Group: Металариец
Posts: 4,398
Releases: 3004
From: 55°35’N 38°08’E
On Forums: 9 years 11 months
Thanks: 55905 time(s)
Unknown


(IMG:http://metalarea.org/images/audiocovers/2018_Apr/acov_tid305307_thumb.jpg)

*Artist: Лихолесье
*Album: Сказы [ep]
*Year: 2018
*Genre: Dark Ambient/Folk
*Country: Russian Federation (IMG:http://metalarea.org/forum/style_images/flags/Russian%20Federation.png)
*Format: mp3@CBR320kbps
*Size: 48MB

Tracklist:
1.Хвоя 06:30
2.На Том Берегу 05:48
3.Север 08:30
******************************
Total playing time: 20:48




Technical info
(IMG:http://metalarea.org/images/spectrogram/2018_Apr/5b6b980d41830a2dce5c3cb4a316e650.png)
Input File: 01 Pine Needle.mp3
Channels : 2
Sample Rate : 44100
Precision : 16-bit
Duration : 00:06:30.20 = 17207996 samples = 29265.3 CDDA sectors
File Size : 15.6M
Bit Rate : 320k
Sample Encoding: MPEG audio (layer I, II or III)
Comments :
Title=Pine Needle
Artist=Liholesie
Album=Fables
Tracknumber=1
Year=2018
Genre=Folk



Register


Go to the top of the page
  Insert nick Quick quote
+Quote Post
 
Start new topic
Replies (1 - 9)
post Apr 29 2018, 15:10:39
Post #2

Русь Понад Усе!
**************
Group: Металариец
Posts: 4,032
Releases: 15
From: Украина
On Forums: 10 years 9 months
Thanks: 1536 time(s)
Ukraine


Хорошая работа. Всё очень мелодично и атмосферно (IMG:style_emoticons/default/bye.gif)
Go to the top of the page
  Insert nick Quick quote
+Quote Post
post May 7 2018, 12:24:09
Post #3

Два Литра
**
Group: Завсегдатай
Posts: 155
Releases: 0
From: Чуркестан
On Forums: 10 years 9 months
Thanks: 13 time(s)
Uzbekistan


Люто! Не ожидал такое из Эрэфии.
Go to the top of the page
  Insert nick Quick quote
+Quote Post
post May 7 2018, 12:38:22
Post #4

for me your flesh
******
Group: Металариец
Posts: 590
Releases: 0
On Forums: 10 months 2 weeks
Thanks: 356 time(s)
Unknown


Здесь отчасти наметился возврат к Беспредельной Жажде Иного. Удачный миник, хорошо, но мало.
Go to the top of the page
  Insert nick Quick quote
+Quote Post
post May 14 2018, 14:24:22
Post #5

Три Литра
***
Group: Завсегдатай
Posts: 205
Releases: 0
On Forums: 7 months 4 weeks
Thanks: 75 time(s)
United States


Подходящая музыка для созерцательного время препровождения. И кажется мне, что Север явно не равнодушен к творчеству Вардруны...
Хороший миник получился
Go to the top of the page
  Insert nick Quick quote
+Quote Post
post Jun 7 2018, 15:57:52
Post #6

Group: Подсевший
Posts: 27
Releases: 3
From: Тула
On Forums: 9 months 3 weeks
Thanks: 89 time(s)
Russian Federation


Надеюсь с новым полноформатником долго тянуть не будет. Отличный EP получился, жаль что на CD не издали.
Предыдущий альбом был отличным, хоть и отошел от общей стилистики.
Go to the top of the page
  Insert nick Quick quote
+Quote Post
post Jun 7 2018, 16:01:59
Post #7

Волк без яблока
**************
Group: Металариец
Posts: 12,977
Releases: 102
From: Санкт-Петербург
On Forums: 11 years 8 months
Thanks: 14520 time(s)
Russian Federation


ЦИТАТА(Golodomor @ 7th May 2018 - 14:38:22) *
Беспредельной Жажде Иного

А ремастер выкладывал кто?
Go to the top of the page
  Insert nick Quick quote
+Quote Post
post Jun 7 2018, 16:09:38
Post #8

Group: Подсевший
Posts: 27
Releases: 3
From: Тула
On Forums: 9 months 3 weeks
Thanks: 89 time(s)
Russian Federation


ЦИТАТА(MeatWolf @ Jun 7 2018, 16:01:59) *
А ремастер выкладывал кто?

А нужен? могу с родного диска Flac залить, если уж прям нужно. Там еще бонус есть. Оформление конечно шикарное.


Thanks:
Go to the top of the page
  Insert nick Quick quote
+Quote Post
post Jun 7 2018, 16:11:34
Post #9

Наливай!
**************
Group: Металариец
Posts: 5,027
Releases: 27
From: Москва-Бибирево
On Forums: 10 years 3 months
Thanks: 2334 time(s)
Russian Federation


ЦИТАТА(dk201x @ Jun 7 2018, 18:09:38) *
А нужен? могу с родного диска Flac залить, если уж прям нужно. Там еще бонус есть. Оформление конечно шикарное.


Лей конечно!.
Go to the top of the page
  Insert nick Quick quote
+Quote Post
post Jun 7 2018, 16:22:55
Post #10

Group: Подсевший
Posts: 27
Releases: 3
From: Тула
On Forums: 9 months 3 weeks
Thanks: 89 time(s)
Russian Federation


ЦИТАТА(SAPOGi @ Jun 7 2018, 16:11:34) *
Лей конечно!.

Делал рип для другого сайта, но так и не залил туда. В логе он прописан.
https://yadi.sk/d/uvhh2FGJ3XMa8e
Бонусы ремастера (Беспредельная Жажда Иного)
11 Вороны (Remix – WooDMooD) 7:09
12 Под Свинцовым Небом (Cover – Мира Древо) 5:06


Thanks:
Go to the top of the page
  Insert nick Quick quote
+Quote Post

Reply to this topicStart new topic
2 User(s) are reading this topic (2 Guests and 0 Anonymous Users)
0 Members:

 



- Lo-Fi Version Support form
Copyrights and abuse reports form
Time is now: 23rd June 2018 - 18:41:32