Welcome Guest ( Log In | Register )

> Wallfahrer - Anthologie Der Abkehr (2018), Black Metal
post Apr 30 2018, 01:33:25
Post #1

Правь статус, ####!616
**************
Group: Металариец
Posts: 4,705
Releases: 3282
From: 55°35’N 38°08’E
On Forums: 11 years 4 months
Thanks: 62014 time(s)
Unknown


(IMG:http://metalarea.org/images/audiocovers/2018_Apr/acov_tid305336_thumb.jpg)

*Artist: Wallfahrer
*Album: Anthologie Der Abkehr
*Year: 2018
*Genre: Black Metal
*Country: Germany (IMG:http://metalarea.org/forum/style_images/flags/Germany.png)
*Format: mp3@CBR320kbps
*Size: 122MB

Tracklist:
1.Lacrimis Sanguine 07:58
2.Wallfahrt (Pfade Der Erkenntnis) 08:22
3.Zeitzeremonie (Es Endet Alles) 06:42
4.Wildes Heer (Epilog Des Herbstes) 10:19
5.Ketzerkonfession 08:02
6.Lichtmesse (Als Die Bergfeuer Brannten) 11:39
******************************
Total playing time: 53:02



Technical info
(IMG:http://metalarea.org/images/spectrogram/2018_Apr/72f170b6e4d59f84283d79349df06f66.png)
Input File: 01 Lacrimis Sanguine.mp3
Channels : 2
Sample Rate : 44100
Precision : 16-bit
Duration : 00:07:58.92 = 21120548 samples = 35919.3 CDDA sectors
File Size : 19.3M
Bit Rate : 322k
Sample Encoding: MPEG audio (layer I, II or III)
Comments :
Title=Lacrimis Sanguine
Artist=Wallfahrer
Album=Anthologie Der Abkehr
Tracknumber=1
Year=2018
Genre=Black Metal



Register


Go to the top of the page
  Insert nick Quick quote
+Quote Post
 
Start new topic
Replies (1 - 4)
post Apr 30 2018, 16:19:02
Post #2

I hate you all
**************
Group: Металариец
Posts: 2,096
Releases: 75
From: Ukraine
On Forums: 12 years 6 months
Thanks: 5271 time(s)
Ukraine




Thanks:
(2) smysl, suseka,
Go to the top of the page
  Insert nick Quick quote
+Quote Post
post Jun 7 2018, 10:30:33
Post #3

Watch The Water
*********
Group: Металариец
Posts: 932
Releases: 30
On Forums: 12 years 8 months
Thanks: 1242 time(s)
El Salvador


Отличный альбом, странно, что без комментов.
Go to the top of the page
  Insert nick Quick quote
+Quote Post
post Apr 5 2019, 15:47:15
Post #4

I hate you all
**************
Group: Металариец
Posts: 2,096
Releases: 75
From: Ukraine
On Forums: 12 years 6 months
Thanks: 5271 time(s)
Ukraine


Отменный альбом ! Только сегодня до него добрался , и был приятно удивлён .
Go to the top of the page
  Insert nick Quick quote
+Quote Post
post Nov 8 2019, 20:58:19
Post #5

Black is beautiful
***********
Group: Металариец
Posts: 1,744
Releases: 4
On Forums: 7 years 8 months
Thanks: 341 time(s)
Unknown


Hey guys that's great black metal!
***** Stars
(IMG:style_emoticons/default/true_black.gif) (IMG:style_emoticons/default/true_black.gif) (IMG:style_emoticons/default/true_black.gif)
Go to the top of the page
  Insert nick Quick quote
+Quote Post

Reply to this topicStart new topic
2 User(s) are reading this topic (2 Guests and 0 Anonymous Users)
0 Members:

 



- Lo-Fi Version Support form
Copyrights and abuse reports form
Time is now: 18th November 2019 - 04:33:54