Welcome Guest ( Log In | Register )

> 

Здесь релизы с живыми прямыми ссылками на lossless

> Just Before Dawn - Tides Of Blood (2018), Old School Death Metal
post Apr 30 2018, 14:26:04
Post #1

Правь статус, ####!111
**************
Group: Металариец
Posts: 13,328
Releases: 9404
From: Г.Харьков
On Forums: 6 years 1 month
Thanks: 153483 time(s)
Unknown


(IMG:http://metalarea.org/images/audiocovers/2018_Apr/acov_tid305356_thumb.jpg)

*Artist: Just Before Dawn
*Album: Tides Of Blood
*Year: 2018
*Genre: Old School Death Metal
*Country: International (IMG:http://metalarea.org/forum/style_images/flags/Many.png)
*Format: mp3@CBR320kbps
*Size: 149MB

Tracklist:
1. When the Iron Shield Falls 01:37
2. Day of Days 04:20
3. Market Garden 05:04
4. Formations at the Rising Dawn 04:49
5. Battle for the Bridge 04:21
6. Tides of Blood 06:48
7. Bombs over Bremen 05:38
8. Civilian Alliance 05:46
9. Spirit of the Blitz 06:17
10. In the Depth of War (Outro - Declaration War) 08:28
******************************
Total playing time: 53:08



Extended info
International United Kingdom / Sweden
CD-Rip+Scans

Anders Biazzi Bass (2012-2017), Guitars (2012-present)
See also: Gods Forsaken, ex-Blood Mortized, ex-Scum, ex-Amon Amarth, ex-Pathalog
Brynjar Helgetun Drums (2014-present)
See also: Crypticus, Dominant, Gods Forsaken, Johansson & Speckmann, Kam Lee, Liklukt, Megascavenger, The Grotesquery, Those Who Bring the Torture, ex-The Skeletal, ex-Axeslasher, ex-Down Among the Dead Men, ex-Ribspreader
Jonny Pettersson Vocals (2014-present), Bass (2017-present)
See also: Ashcloud, Gods Forsaken, Henry Kane, Human Harvest, Pale King, Skineater, Syn:drom, Ursinne, Vholdghast, Wombbath, ex-Disfigured Victims, ex-Cavevomit, Troikadon, ex-Sorghegard, ex-Ooz
Jon Rudin Drums (2017-present)
See also: From Ruin, Pale King, ex-Ashcloud, ex-Body Harvest
Gustav Myrin Guitars (2017-present)
See also: Reek of Martyr, ex-Blood Mortized, ex-Pathalog, ex-Apes IQ
Dave Ingram Vocals (2018-present)
See also: Down Among the Dead Men, Echelon, Ursinne, ex-Downlord, ex-Hail of Bullets, ex-Strangler, Troikadon, ex-Benediction, ex-Eyegouger, ex-Bolt Thrower


Technical info
(IMG:http://metalarea.org/images/spectrogram/2018_Apr/88b87fddeb68ea845794a913bf36cf48.png)
Input File: 03. Market Garden.mp3
Channels : 2
Sample Rate : 44100
Precision : 16-bit
Duration : 00:05:03.86 = 13400138 samples = 22789.4 CDDA sectors
File Size : 12.2M
Bit Rate : 320k
Sample Encoding: MPEG audio (layer I, II or III)
Comments :
Title=Market Garden
Artist=Just Befor Dawn
Album= Tides Of Blood
Tracknumber=03
Year=2018



Register


Go to the top of the page
  Insert nick Quick quote
+Quote Post
 
Start new topic
Replies (1 - 9)
post May 1 2018, 08:20:21
Post #2

Правь статус, ####!111
**************
Group: Металариец
Posts: 13,328
Releases: 9404
From: Г.Харьков
On Forums: 6 years 1 month
Thanks: 153483 time(s)
Unknown


Register

Register


Thanks:
Go to the top of the page
  Insert nick Quick quote
+Quote Post
post May 1 2018, 10:16:48
Post #3

Два Литра
**
Group: Завсегдатай
Posts: 170
Releases: 0
On Forums: 12 years 4 months
Thanks: 19 time(s)
Russian Federation


FLAC file: Is it image or tracks?
Go to the top of the page
  Insert nick Quick quote
+Quote Post
post May 1 2018, 10:57:14
Post #4

Правь статус, ####!111
**************
Group: Металариец
Posts: 13,328
Releases: 9404
From: Г.Харьков
On Forums: 6 years 1 month
Thanks: 153483 time(s)
Unknown


ЦИТАТА(sekmeth @ 1st May 2018 - 10:16:48) *
Is it image or tracks?

image+cue+log+scans
Go to the top of the page
  Insert nick Quick quote
+Quote Post
post May 15 2018, 17:41:21
Post #5

Литр
*
Group: Подсевший
Posts: 89
Releases: 0
From: Ukraine, Zaporozhie
On Forums: 11 years 4 months
Thanks: 6 time(s)
Ukraine


Очень, очень, очень достойно.


Thanks:
Go to the top of the page
  Insert nick Quick quote
+Quote Post
post May 24 2018, 22:00:21
Post #6

Правь статус, ####!111
**************
Group: Металариец
Posts: 31,945
Releases: 486
On Forums: 9 years 2 weeks
Thanks: 24524 time(s)
Russian Federation


Жду рецензии от Сэра.


Thanks:
(1) nunim,
Go to the top of the page
  Insert nick Quick quote
+Quote Post
post May 24 2018, 23:18:46
Post #7

Flowers Of The Underworld
**************
Group: Металариец
Posts: 5,294
Releases: 0
On Forums: 8 years 7 months
Thanks: 2253 time(s)
Unknown


Мало хайпу в этот раз шото.
хотя по моему тут все около оценки "приятный фон"...
Go to the top of the page
  Insert nick Quick quote
+Quote Post
post May 25 2018, 08:12:02
Post #8

Правь статус, ####!111
**************
Group: Металариец
Posts: 31,945
Releases: 486
On Forums: 9 years 2 weeks
Thanks: 24524 time(s)
Russian Federation


ЦИТАТА(Chasm @ May 25 2018, 02:18:46) *
Мало хайпу в этот раз шото.


Может все из-за того, что Роггатый свалил после первого лонгплея? (IMG:style_emoticons/default/1488.gif)
Go to the top of the page
  Insert nick Quick quote
+Quote Post
post Jun 14 2018, 13:04:15
Post #9

\m/
Group Icon
Group: S-moderation team
Posts: 7,407
Releases: 19
From: Петропавловск-Камчатский
On Forums: 9 years 5 days
Thanks: 6640 time(s)
Russian Federation


Тягомотина и нудятина. Один раз послушать и удалить.
Go to the top of the page
  Insert nick Quick quote
+Quote Post
post Jun 14 2018, 13:08:58
Post #10

Правь статус, ####!111
**************
Group: Металариец
Posts: 31,945
Releases: 486
On Forums: 9 years 2 weeks
Thanks: 24524 time(s)
Russian Federation


ЦИТАТА(DarkHorde @ Jun 14 2018, 16:04:15) *
Тягомотина и нудятина. Один раз послушать и удалить.


Это про более 90% ежедневно вываливающихся релизов можно сказать (IMG:style_emoticons/default/25.gif)
Go to the top of the page
  Insert nick Quick quote
+Quote Post

Reply to this topicStart new topic
2 User(s) are reading this topic (2 Guests and 0 Anonymous Users)
0 Members:

 



- Lo-Fi Version Support form
Copyrights and abuse reports form
Time is now: 18th June 2018 - 04:54:26