Welcome Guest ( Log In | Register )

> Rawrorr - Solipsism (2018), Death Metal
post Apr 30 2018, 16:17:50
Post #1

Мегаманьяк
***********
Group: Металариец
Posts: 1,957
Releases: 160
On Forums: 7 years 10 months
Thanks: 3232 time(s)
Unknown


(IMG:http://metalarea.org/images/audiocovers/2018_Apr/acov_tid305366_thumb.jpg)

*Artist: Rawrorr
*Album: Solipsism
*Year: 2018
*Genre: Death Metal
*Country: Ukraine (IMG:http://metalarea.org/forum/style_images/flags/Ukraine.png)
*Format: mp3@CBR320kbps
*Size: 60MB

Tracklist:
01.Crystal Crypt Of Unsociability
02.Obliterate The Warp Of Divine Entity
03.Abysmal Fundamental Oblation
04.Hollow But Schopenhauer
05.Expectating Overall Pizdetz
06.Erebus
07.Terror
08.Impermanent Stare At Charred Stumps
09.Apotheosis Of Transtectonic Procession
******************************
Total playing time: 31:42

Technical info
(IMG:http://metalarea.org/images/spectrogram/2018_Apr/4d7c34be069f59b075cec2163617a4ef.png)
Input File: 02.Obliterate The Warp Of Divine Entity.mp3
Channels : 2
Sample Rate : 44100
Precision : 16-bit
Duration : 00:02:54.34 = 7688570 samples = 13075.8 CDDA sectors
File Size : 6.97M
Bit Rate : 320k
Sample Encoding: MPEG audio (layer I, II or III)
Comments :
Title=Obliterate The Warp Of Divine Entity
Artist=Rawrorr
Album=Solipsism
Tracknumber=2
Year=2018
Genre=pizdetz vsemu ssushemu



Register


Go to the top of the page
  Insert nick Quick quote
+Quote Post
6 Pages V  « < 4 5 6  
Start new topic
Replies (150 - 150)
post Jul 18 2018, 21:40:28
Post #151

В чистоте и единстве:мысль-слово-дело
**************
Group: Металариец
Posts: 2,251
Releases: 9
From: Киев
On Forums: 11 years 1 week
Thanks: 1240 time(s)
Ukraine


ЦИТАТА(maxmagmas @ 18th July 2018 - 22:49:00) *
Кому то нравится, кому то не нравится. Банальные вещи в общем то пишу. Зачем так убиваться? Свечи ставить за упокой.. Поражаюсь вам, люди.

так жить то надо весело, а не скучно. )
Go to the top of the page
  Insert nick Quick quote
+Quote Post

6 Pages V  « < 4 5 6
Reply to this topicStart new topic
2 User(s) are reading this topic (2 Guests and 0 Anonymous Users)
0 Members:

 



- Lo-Fi Version Support form
Copyrights and abuse reports form
Time is now: 20th July 2018 - 00:23:11