Welcome Guest ( Log In | Register )

> И неформату есть предел.

Рэп/хип-хоп/шансон/поп удаляются. Для них есть свои порталы.

 
Reply to this topicStart new topic
> Mythos - Eternity (2002), New Age/Downtempo/Ambient (D8)
post May 1 2018, 21:30:57
Post #1

Маньяк
**********
Group: Металариец
Posts: 1,196
Releases: 66
From: Tehran
On Forums: 8 years 6 months
Thanks: 2121 time(s)
Iran


(IMG:http://metalarea.org/images/audiocovers/2018_May/acov_tid305404_thumb.jpg)

*Artist: Mythos
*Album: Eternity
*Year: 2002
*Genre: New Age/Downtempo/Ambient
*Country: Canada (IMG:http://metalarea.org/forum/style_images/flags/Canada.png)
*Format: mp3@CBR320kbps
*Size: 119MB

Tracklist:
01. Ascent 03:39
02. Unity 04:21
03. Del Mar 03:42
04. Turn To Grey 03:56
05. Alpha 02:48
06. Exodus 04:39
07. Leyenda 01:51
08. Kyrie 04:35
09. Dreams Of Jade 05:28
10. Paradise 03:46
11. Orca 05:48
12. Sixth Sense 02:35
13. Freedom 04:02
******************************
Total playing time: 51:10

Extended info
Ethereal, enchanting, hauntingly beautiful and other worldly music.

Mythos is a New Age musical project started by Bob D'Eith and Paul Schmidt in 1996. Bob (piano) and Paul (guitar) collectively write, produce, and perform on the albums with the help of various session performers. The centerpiece of the Mythos sound rests on the acoustic guitar and piano, which are accented by guest vocalists. Synthesizers and performances in various other musical styles are regularly incorporated into the music.


Technical info
(IMG:http://metalarea.org/images/spectrogram/2018_May/cadab0a089d3443ed13064c3cf3f3324.png)
Input File: 01-Ascent.mp3
Channels : 2
Sample Rate : 44100
Precision : 16-bit
Duration : 00:03:40.00 = 9702000 samples = 16500 CDDA sectors
File Size : 8.90M
Bit Rate : 324k
Sample Encoding: MPEG audio (layer I, II or III)
Comments :
Title=Ascent
Artist=Mythos
Album=Eternity
Tracknumber=01/13
Year=2002
Genre=New Age, Downtempo, Ambient



Register
Go to the top of the page
  Insert nick Quick quote
+Quote Post

Reply to this topicStart new topic
1 User(s) are reading this topic (1 Guests and 0 Anonymous Users)
0 Members:

 



- Lo-Fi Version Support form
Copyrights and abuse reports form
Time is now: 20th October 2018 - 08:32:10