Welcome Guest ( Log In | Register )

 
Reply to this topicStart new topic
> Annihilate The Hero - Perpetual Fracture (2018), Groove Metal (D6)
post May 2 2018, 11:59:59
Post #1

Serial Uploader
Group Icon
Group: V.I.P
Posts: 33,063
Releases: 31348
From: Lithuania
On Forums: 10 years 3 months
Thanks: 358610 time(s)
Lithuania


(IMG:https://metalarea.org/images/audiocovers/2018_May/acov_tid305423_thumb.jpg)

*Artist: Annihilate The Hero
*Album: Perpetual Fracture
*Year: 2018
*Genre: Groove Metal
*Country: United States (IMG:https://metalarea.org/forum/style_images/flags/United%20States.png)
*Format: mp3@CBR320kbps
*Size: 100MB

Tracklist:
01. Turbulence 05:20
02. Tempest 03:34
03. Contrition 06:50
04. Dissonance 03:31
05. Desolation 02:30
06. Defiance 04:15
07. Escape 04:46
08. Confluence 05:46
09. Infinity 06:08
******************************
Total playing time: 42:40

(IMG:https://metalarea.org/images/myspace.png)



Technical info
(IMG:https://metalarea.org/images/spectrogram/2018_May/0b434ff225448048f53aa93208a23816.png)
Input File: 02. Tempest.mp3
Channels : 2
Sample Rate : 44100
Precision : 16-bit
Duration : 00:03:34.30 = 9450718 samples = 16072.6 CDDA sectors
File Size : 8.80M
Bit Rate : 328k
Sample Encoding: MPEG audio (layer I, II or III)
Comments :
Title=Tempest
Artist=Annihilate The Hero
Album=Perpetual Fracture
Tracknumber=2
Year=2018



Register


Thanks:
(2) Rosen, wreak,
Go to the top of the page
  Insert nick Quick quote
+Quote Post

Reply to this topicStart new topic
1 User(s) are reading this topic (1 Guests and 0 Anonymous Users)
0 Members:

 



- Lo-Fi Version Support form
Copyrights and abuse reports form
Time is now: 22nd September 2018 - 08:40:36