Welcome Guest ( Log In | Register )

> Releases Upload / ƒобавление релизов

ƒобавить релиз тут / Click here to add release
–екомендованные обменники / Recommended file shares

 
ќтветить—оздать новую тему
> Wørsen - Stronghold [demo] (2018), Black/Death Metal/Crust (D5)
post May 2 2018, 13:20:09
Post #1

ѕравь статус, ####!616
**************
Group: ћеталариец
Posts: 4,347
Releases: 2962
From: 55∞35ТN 38∞08ТE
On Forums: 9 years 10 months
Thanks: 55154 time(s)
Unknown


(IMG:http://metalarea.org/images/audiocovers/2018_May/acov_tid305425_thumb.jpg)

*Artist: Wørsen
*Album: Stronghold [demo]
*Year: 2018
*Genre: Black/Death Metal/Crust
*Country: United States (IMG:http://metalarea.org/forum/style_images/flags/United%20States.png)
*Format: mp3@CBR320kbps
*Size: 55MB

Tracklist:
1.Into the Stronghold 01:27
2.Defensive Isolation 02:54
3.Death Nightmare 02:21
4.Harvest of Suffering 03:05
5.Flesh Paradox 02:34
6.Lust & Disgust 03:41
7.Scorn Hierarchy 02:42
8.Broken Spirit 04:40
******************************
Total playing time: 23:24




Technical info
(IMG:http://metalarea.org/images/spectrogram/2018_May/fcd9411cf180b4e4ec456d116baf95d3.png)
Input File: 02 Defensive Isolation.mp3
Channels : 2
Sample Rate : 44100
Precision : 16-bit
Duration : 00:02:54.41 = 7691569 samples = 13080.9 CDDA sectors
File Size : 7.04M
Bit Rate : 323k
Sample Encoding: MPEG audio (layer I, II or III)
Comments :
Title=Defensive Isolation
Artist=W√ШRSEN
Album=STRONGHOLD
Tracknumber=2
Year=2018
Genre=Black Metal



Register


¬ернутьс€ к началу страницы
  Insert nick Quick quote
+÷итировать сообщение

ќтветить—оздать новую тему
1 User(s) are reading this topic (1 Guests and 0 Anonymous Users)
0 Members:

 



- Lo-Fi Version Support form
Copyrights and abuse reports form
Time is now: 27th May 2018 - 12:55:00