Welcome Guest ( Log In | Register )

> И неформату есть предел.

Рэп/хип-хоп/шансон/поп удаляются. Для них есть свои порталы.

 
Reply to this topicStart new topic
> Various Artists - Sonic Seducer: Cold Hands Seduction 198 [best of/compilation] (2018), Various Gothic
post May 2 2018, 22:54:22
Post #1

Мегаманьяк
***********
Group: Металариец
Posts: 1,675
Releases: 463
On Forums: 10 years 3 months
Thanks: 6361 time(s)
Ireland


(IMG:https://metalarea.org/images/audiocovers/2018_May/acov_tid305443_thumb.jpg)

*Artist: Various Artists
*Album: Sonic Seducer: Cold Hands Seduction 198 [best of/compilation]
*Year: 2018
*Genre: Various Gothic
*Country: Many (IMG:https://metalarea.org/forum/style_images/flags/Many.png)
*Format: mp3@CBR320kbps
*Size: 172MB

Tracklist:
01. Bannkreis - Sakrament
02. Auri - Night 13
03. Crematory - Ghost Of The Past
04. Merciful Nuns - Blue Lodge darkscene.org
05. Sonorus7 - Wasteland
06. Inner Core - Snowstorm
07. Auger - My Guardian
08. Armageddon Dildos - Intimidated (7 Inch Mix)
09. Struck9 - Resist
10. Louise Lemón - Egyptian Darkness
11. Schwarzblut - Vogala
12. Sinestar - Lie On Lie
13. In Good Faith - Licht
14. Palais Ideal - Invisible Eye
15. Sirus - Singularity (Single Edit)
16. AD:Key - Mein Weg (Extended Space Version)
17. Ruinizer - Detritus
******************************
Total playing time: 1:16:43

Technical info
(IMG:https://metalarea.org/images/spectrogram/2018_May/4da3eeb8379fa3d56b96d8b14051bd84.png)
Input File: 16 Mein Weg (Extended Space Version).mp3
Channels : 2
Sample Rate : 44100
Precision : 16-bit
Duration : 00:05:21.84 = 14192924 samples = 24137.6 CDDA sectors
File Size : 13.0M
Bit Rate : 323k
Sample Encoding: MPEG audio (layer I, II or III)
Comments :
Title=Mein Weg (Extended Space Version)
Artist=AD:Key
Album=Cold Hands Seduction Vol. 198
Tracknumber=16
Year=2018
Genre=Gothic Rock/Darkwave/EBM



Register


Thanks:
Go to the top of the page
  Insert nick Quick quote
+Quote Post

Reply to this topicStart new topic
1 User(s) are reading this topic (1 Guests and 0 Anonymous Users)
0 Members:

 



- Lo-Fi Version Support form
Copyrights and abuse reports form
Time is now: 16th August 2018 - 11:24:33