Welcome Guest ( Log In | Register )

> 

Здесь релизы с живыми прямыми ссылками на lossless

> Angelus Apatrida - Cabaret De La Guillotine (2018), Thrash Metal
post May 3 2018, 11:46:06
Post #1

Правь статус, ####!111
**************
Group: Металариец
Posts: 13,355
Releases: 9415
From: Г.Харьков
On Forums: 6 years 1 month
Thanks: 153658 time(s)
Unknown


(IMG:http://metalarea.org/images/audiocovers/2018_May/acov_tid305459_thumb.jpg)

*Artist: Angelus Apatrida
*Album: Cabaret De La Guillotine
*Year: 2018
*Genre: Thrash Metal
*Country: Spain (IMG:http://metalarea.org/forum/style_images/flags/Spain.png)
*Format: mp3@CBR320kbps
*Size: 128MB

Tracklist:
1. Sharpen the Guillotine 06:01
2. Betrayed 06:05
3. Ministry of God 05:00
4. The Hum 04:26
5. Downfall of the Nation 04:49
6. One of Us 03:13
7. The Die Is Cast 05:23
8. Witching Hour 05:59
9. Farewell 06:24
10. Martyrs of Chicago 05:00
******************************
Total playing time: 52:20



Extended info
Víctor Valera Drums, Vocals (backing)
José J. Izquierdo Bass
Guillermo Izquierdo "Polako" Guitars, Vocals
David G. Álvarez Guitars



Technical info
(IMG:http://metalarea.org/images/spectrogram/2018_May/cc341c7efdf6baaa67072e28487c10c3.png)
Input File: 02 Betrayed.mp3
Channels : 2
Sample Rate : 44100
Precision : 16-bit
Duration : 00:06:05.96 = 16138704 samples = 27446.8 CDDA sectors
File Size : 15.5M
Bit Rate : 338k
Sample Encoding: MPEG audio (layer I, II or III)
Comments :
Title=Betrayed
Artist=Angelus Apatrida
Album=Cabaret De La Guillotine
Tracknumber=2/10
Year=2018
Genre=Rock
Discnumber=1/1



Register


Go to the top of the page
  Insert nick Quick quote
+Quote Post
 
Start new topic
Replies (1 - 7)
post May 3 2018, 18:11:26
Post #2

Правь статус, ####!111
**************
Group: Металариец
Posts: 13,355
Releases: 9415
From: Г.Харьков
On Forums: 6 years 1 month
Thanks: 153658 time(s)
Unknown


Register


Thanks:
(1) Diflock,
Go to the top of the page
  Insert nick Quick quote
+Quote Post
post May 3 2018, 22:25:41
Post #3

Тридцать лет на борту "Тяжёлого" крейсера
***********
Group: Металариец
Posts: 1,732
Releases: 0
From: Питер
On Forums: 11 years 1 week
Thanks: 368 time(s)
Russian Federation


Норм. За шесть лет особенно не изменили
Go to the top of the page
  Insert nick Quick quote
+Quote Post
post May 4 2018, 04:45:52
Post #4

Правь статус, ####!111
**************
Group: Металариец
Posts: 5,131
Releases: 0
From: Primorye.ru
On Forums: 7 years 2 months
Thanks: 974 time(s)
Russian Federation


... а мне вновь понравился очередной релиз сих, а гитарки то просто заслушаешся
Go to the top of the page
  Insert nick Quick quote
+Quote Post
post May 7 2018, 19:41:01
Post #5

Old School Metal
**************
Group: Металариец
Posts: 2,555
Releases: 0
From: г. Минск
On Forums: 9 years 3 months
Thanks: 5100 time(s)
Belarus


(IMG:https://fanart.tv/fanart/music/46507379-c53e-4f63-a045-d444c253d547/hdmusiclogo/angelus-apatrida-503e5f340ac95.png)


Angelus Apatrida - Cabaret De La Guillotine (2018, Century Media)


(IMG:http://i104.fastpic.ru/big/2018/0506/ac/155e26f50773ff69334770beb29812ac.jpg)


Lossless: FLAC (image+.cue+.log) + Covers


Register




Thanks:
Go to the top of the page
  Insert nick Quick quote
+Quote Post
post May 8 2018, 02:09:47
Post #6

\m/
Group Icon
Group: S-moderation team
Posts: 7,407
Releases: 19
From: Петропавловск-Камчатский
On Forums: 9 years 1 week
Thanks: 6640 time(s)
Russian Federation


Слабый альбом, полутрэш(
Go to the top of the page
  Insert nick Quick quote
+Quote Post
post May 8 2018, 05:55:20
Post #7

И Ван Дамм По Делам Вашим!
**************
Group: Металариец
Posts: 15,720
Releases: 27
On Forums: 9 years 11 months
Thanks: 8279 time(s)
Honduras


Хороший альбом.
Go to the top of the page
  Insert nick Quick quote
+Quote Post
post May 19 2018, 09:16:26
Post #8

South Of Heaven /адепт ВУДУ
**************
Group: Металариец
Posts: 12,532
Releases: 7
From: Санкт-Петербург
On Forums: 8 years 2 months
Thanks: 4501 time(s)
Russian Federation


В стиль смело можно добавить хэви, по ходу самый слабый альбом в их д/г, но слушать можно и даже нужно.
Go to the top of the page
  Insert nick Quick quote
+Quote Post

Reply to this topicStart new topic
2 User(s) are reading this topic (2 Guests and 0 Anonymous Users)
0 Members:

 



- Lo-Fi Version Support form
Copyrights and abuse reports form
Time is now: 20th June 2018 - 14:10:18