Welcome Guest ( Log In | Register )

> Advent Of Bedlam - Human Portal Phenomenon (2018), Technical/Melodic Death Metal (D5)
post May 3 2018, 14:26:25
Post #1

Serial Uploader
Group Icon
Group: V.I.P
Posts: 37,203
Releases: 35385
From: Lithuania
On Forums: 12 years 3 weeks
Thanks: 420983 time(s)
Lithuania


(IMG:https://metalarea.org/images/audiocovers/2018_May/acov_tid305467_thumb.jpg)

*Artist: Advent Of Bedlam
*Album: Human Portal Phenomenon
*Year: 2018
*Genre: Technical/Melodic Death Metal
*Country: Costa Rica (IMG:https://metalarea.org/forum/style_images/flags/Costa%20Rica.png)
*Format: mp3@CBR320kbps
*Size: 104MB

Tracklist:
01. Human Portal Phenomenon 00:54
02. Olympus Mons 04:32
03. Born Of Synapses 04:36
04. The Ever Watchful Eye 05:10
05. A Liar's Spit 04:23
06. A Human Farm 04:28
07. The Vanishing 05:02
08. Crown Of Greed 04:48
09. Comstockery 04:27
10. Vultures Of The World 04:47
******************************
Total playing time: 43:07

(IMG:https://metalarea.org/images/myspace.png)




Technical info
(IMG:https://metalarea.org/images/spectrogram/2018_May/f63dfc248a8cb6c56981d2ea6bebb08a.png)
Input File: 02. Olympus Mons.mp3
Channels : 2
Sample Rate : 44100
Precision : 16-bit
Duration : 00:04:32.12 = 12000316 samples = 20408.7 CDDA sectors
File Size : 11.4M
Bit Rate : 336k
Sample Encoding: MPEG audio (layer I, II or III)
Comments :
Title=Olympus Mons
Artist=Advent of Bedlam
Album=Human Portal Phenomenon
Tracknumber=2/10
Year=2018
Genre=Alternative
Discnumber=1/1



Register


Go to the top of the page
  Insert nick Quick quote
+Quote Post
 
Start new topic
Replies (1 - 7)
post May 3 2018, 19:02:32
Post #2

Правь статус, ####!111
**************
Group: Металариец
Posts: 22,241
Releases: 15400
From: Г.Харьков
On Forums: 8 years 1 month
Thanks: 281110 time(s)
Unknown


Register


Go to the top of the page
  Insert nick Quick quote
+Quote Post
post May 3 2018, 21:29:41
Post #3

MDM-Thrash Metal
**************
Group: Металариец
Posts: 9,625
Releases: 912
From: Одесса
On Forums: 12 years 10 months
Thanks: 23539 time(s)
Ukraine


https://www.youtube.com/watch?v=Fe-Xiu6TEC8 Advent Of Bedlam - The Ever Watchful Eye (New Release and Video)
Go to the top of the page
  Insert nick Quick quote
+Quote Post
post May 4 2018, 19:10:30
Post #4

Три Литра
***
Group: Завсегдатай
Posts: 202
Releases: 5
On Forums: 4 years 3 weeks
Thanks: 99 time(s)
Russian Federation


Зачем-то выкручены высокие средние частоты, но можно поправить эквалайзером. Сам материал интересный, олдскульный и сложный, буду вникать.
Go to the top of the page
  Insert nick Quick quote
+Quote Post
post May 13 2018, 22:11:07
Post #5

Schuldinerist
**************
Group: Металариец
Posts: 10,744
Releases: 34
From:
On Forums: 13 years 2 months
Thanks: 6915 time(s)
Russian Federation


альбом небезинтересный, найдет своего слушателя
7-8/10


Thanks:
(1) cesar,
Go to the top of the page
  Insert nick Quick quote
+Quote Post
post May 30 2018, 17:54:04
Post #6

hearer & reader
**************
Group: Металариец
Posts: 8,786
Releases: 144
From: Moscow
On Forums: 12 years 9 months
Thanks: 8922 time(s)
Russian Federation


Интересный материал, своеобразный. Никак не техникал и не мелодес, но завораживает.
Go to the top of the page
  Insert nick Quick quote
+Quote Post
post Jun 30 2020, 20:01:11
Post #7

Четыре Литра
****
Group: Металариец
Posts: 308
Releases: 0
On Forums: 11 months 1 week
Thanks: 2 time(s)
Argentina


link caido
Go to the top of the page
  Insert nick Quick quote
+Quote Post
post Jun 30 2020, 20:12:32
Post #8

Добрый
**************
Group: Металариец
Posts: 3,961
Releases: 0
On Forums: 2 years 2 days
Thanks: 6675 time(s)
Russian Federation


99 mb/320 kbps
Register


Thanks:
Go to the top of the page
  Insert nick Quick quote
+Quote Post

Reply to this topicStart new topic
2 User(s) are reading this topic (2 Guests and 0 Anonymous Users)
0 Members:

 



- Lo-Fi Version Support form
Copyrights and abuse reports form
Time is now: 3rd July 2020 - 14:05:42