Welcome Guest ( Log In | Register )

> Releases Upload / Добавление релизов

Добавить релиз тут / Click here to add release
Рекомендованные обменники / Recommended file shares

> Bong - Thought And Existence (2018), Psychedelic Drone/Doom Metal
post May 3 2018, 14:39:48
Post #1

Serial Uploader
Group Icon
Group: V.I.P
Posts: 32,460
Releases: 30766
From: Lithuania
On Forums: 9 years 11 months
Thanks: 353388 time(s)
Lithuania


(IMG:https://metalarea.org/images/audiocovers/2018_May/acov_tid305469_thumb.jpg)

*Artist: Bong
*Album: Thought And Existence
*Year: 2018
*Genre: Psychedelic Drone/Doom Metal
*Country: United Kingdom (IMG:https://metalarea.org/forum/style_images/flags/United%20Kingdom.png)
*Format: mp3@CBR320kbps
*Size: 79MB

Tracklist:
01. The Golden Fields 17:30
02. Tlön, Uqbar, Orbis Tertius 19:00
******************************
Total playing time: 36:30

(IMG:https://metalarea.org/images/myspace.png)


Preview 4

Extended info
Also released with bonus track Tlön, Uqbar, Orbis Tertius (Live at Blitz)


Technical info
(IMG:https://metalarea.org/images/spectrogram/2018_May/f881140f5eb1ebdffece22b122530b23.png)
Input File: 02. Tlön Uqbar Orbis Tertius.mp3
Channels : 2
Sample Rate : 44100
Precision : 16-bit
Duration : 00:19:00.17 = 50281585 samples = 85512.9 CDDA sectors
File Size : 45.8M
Bit Rate : 321k
Sample Encoding: MPEG audio (layer I, II or III)
Comments :
Title=Tlön Uqbar Orbis Tertius
Artist=Bong
Album=Thought and Existence
Tracknumber=2/2
Year=2018
Genre=9
Discnumber=1/1



Register


Вернуться к началу страницы
  Insert nick Quick quote
+Цитировать сообщение
 
Создать новую тему
Replies (1 - 2)
post May 16 2018, 15:22:13
Post #2

Шесть Литров
******
Group: Металариец
Posts: 606
Releases: 0
On Forums: 10 years 7 months
Thanks: 192 time(s)
Belarus


(IMG:style_emoticons/default/20.gif) космос
Вернуться к началу страницы
  Insert nick Quick quote
+Цитировать сообщение
post May 16 2018, 15:45:37
Post #3

Наливай!
**************
Group: Металариец
Posts: 4,975
Releases: 27
From: Москва-Бибирево
On Forums: 10 years 2 months
Thanks: 2297 time(s)
Russian Federation


Вернуться к началу страницы
  Insert nick Quick quote
+Цитировать сообщение

ОтветитьСоздать новую тему
2 User(s) are reading this topic (2 Guests and 0 Anonymous Users)
0 Members:

 



- Lo-Fi Version Support form
Copyrights and abuse reports form
Time is now: 24th May 2018 - 06:56:21