Welcome Guest ( Log In | Register )

> И неформату есть предел.

Рэп/хип-хоп/шансон/поп удаляются. Для них есть свои порталы.

 
Reply to this topicStart new topic
> Onirismo - Onirismo (2018), Hardcore/Crust
post May 6 2018, 16:36:09
Post #1

Group: Дух
Posts: 1
Releases: 0
On Forums: 1 month 2 weeks
Thanks: 0 time(s)
Spain


(IMG:https://metalarea.org/images/audiocovers/2018_May/acov_tid305599_thumb.jpg)

*Artist: Onirismo
*Album: Onirismo
*Year: 2018
*Genre: Hardcore/Crust
*Country: Spain (IMG:https://metalarea.org/forum/style_images/flags/Spain.png)
*Format: mp3@CBR320kbps
*Size: 69MB

Tracklist:
1. ¿Lucidez?
2. Reflexiones Equivocadas
3. Sin Vuelta Atrás
4. En el Límite
5. Vacío
6. En Vano
7. Depresión
8. (Ofuscación)
9. Punto de Inflexión
10. Evocando el Pasado
11. Sentimientos Encontrados
12. ¿Ofuscación?
******************************
Total playing time: 36:11


(IMG:https://metalarea.org/images/youtube.png)

Extended info
First concept album by Onirismo. Lyrics in Spanish.

Lineup:
Kablo: All instruments and vocals.


Technical info
(IMG:https://metalarea.org/images/spectrogram/2018_May/95e3fb45e475de50b5fd3743b06b2bd9.png)
Input File: 6 - En Vano.mp3
Channels : 2
Sample Rate : 44100
Precision : 16-bit
Duration : 00:03:29.79 = 9251695 samples = 15734.2 CDDA sectors
File Size : 8.40M
Bit Rate : 320k
Sample Encoding: MPEG audio (layer I, II or III)
Comments :
Title=En Vano
Artist=Onirismo
Album=Onirismo
Tracknumber=6
Year=2018
Genre=Hardcore / Crust



Register
Go to the top of the page
  Insert nick Quick quote
+Quote Post

Reply to this topicStart new topic
1 User(s) are reading this topic (1 Guests and 0 Anonymous Users)
0 Members:

 



- Lo-Fi Version Support form
Copyrights and abuse reports form
Time is now: 23rd June 2018 - 18:45:10