Welcome Guest ( Log In | Register )

> Glaciär - Fyra (2018), Ambient Black Metal
post May 7 2018, 14:59:09
Post #1

Group: Подсевший
Posts: 48
Releases: 9
From: Switzerland
On Forums: 1 year 7 months
Thanks: 350 time(s)
Switzerland


(IMG:http://metalarea.org/images/audiocovers/2018_May/acov_tid305636_thumb.jpg)

*Artist: Glaciär
*Album: Fyra
*Year: 2018
*Genre: Ambient Black Metal
*Country: Germany (IMG:http://metalarea.org/forum/style_images/flags/Germany.png)
*Format: mp3@CBR320kbps
*Size: 67MB

Tracklist:
01. Ett 1:08
02. Tva 9:03
03. Tre 0:43
04. Fyra 8:38
05. Fem 0:30
06. Sex 7:35
07. Sju 0:43
******************************
Total playing time: 28:20

Technical info
(IMG:http://metalarea.org/images/spectrogram/2018_May/0028532e591195c98510ff7883465bc3.png)
Input File: GLACI?R - Fyra - 02 Tva.mp3
Channels : 2
Sample Rate : 44100
Precision : 16-bit
Duration : 00:09:03.66 = 23975494 samples = 40774.6 CDDA sectors
File Size : 21.9M
Bit Rate : 323k
Sample Encoding: MPEG audio (layer I, II or III)
Comments :
Title=Tva
Artist=Glaciär
Album=Fyra
Tracknumber=2
Year=2018



Register


Go to the top of the page
  Insert nick Quick quote
+Quote Post
 
Start new topic
Replies (1 - 3)
post May 8 2018, 05:47:44
Post #2

Правь статус, ####!111
**************
Group: Металариец
Posts: 2,405
Releases: 11
From: Canada
On Forums: 11 years 3 months
Thanks: 1511 time(s)
Canada




Thanks:
(2) Orkkh, ShmiT,
Go to the top of the page
  Insert nick Quick quote
+Quote Post
post May 11 2018, 17:26:13
Post #3

Восемь Литров
********
Group: Металариец
Posts: 818
Releases: 686
From: Новороссийск
On Forums: 7 years 4 months
Thanks: 11593 time(s)
Russian Federation


Go to the top of the page
  Insert nick Quick quote
+Quote Post
post May 17 2018, 14:39:48
Post #4

MDM-Thrash Metal
**************
Group: Металариец
Posts: 7,061
Releases: 412
From: Одесса
On Forums: 11 years 1 month
Thanks: 13433 time(s)
Ukraine


Register
Go to the top of the page
  Insert nick Quick quote
+Quote Post

Reply to this topicStart new topic
2 User(s) are reading this topic (2 Guests and 0 Anonymous Users)
0 Members:

 



- Lo-Fi Version Support form
Copyrights and abuse reports form
Time is now: 19th September 2018 - 03:50:43