Welcome Guest ( Log In | Register )

> Releases Upload / Добавление релизов

Добавить релиз тут / Click here to add release
Рекомендованные обменники / Recommended file shares

> Glaciär - Fyra (2018), Ambient Black Metal
post May 7 2018, 14:59:09
Post #1

Group: Подсевший
Posts: 41
Releases: 9
From: Switzerland
On Forums: 1 year 3 months
Thanks: 317 time(s)
Switzerland


(IMG:http://metalarea.org/images/audiocovers/2018_May/acov_tid305636_thumb.jpg)

*Artist: Glaciär
*Album: Fyra
*Year: 2018
*Genre: Ambient Black Metal
*Country: Germany (IMG:http://metalarea.org/forum/style_images/flags/Germany.png)
*Format: mp3@CBR320kbps
*Size: 67MB

Tracklist:
01. Ett 1:08
02. Tva 9:03
03. Tre 0:43
04. Fyra 8:38
05. Fem 0:30
06. Sex 7:35
07. Sju 0:43
******************************
Total playing time: 28:20

Technical info
(IMG:http://metalarea.org/images/spectrogram/2018_May/0028532e591195c98510ff7883465bc3.png)
Input File: GLACI?R - Fyra - 02 Tva.mp3
Channels : 2
Sample Rate : 44100
Precision : 16-bit
Duration : 00:09:03.66 = 23975494 samples = 40774.6 CDDA sectors
File Size : 21.9M
Bit Rate : 323k
Sample Encoding: MPEG audio (layer I, II or III)
Comments :
Title=Tva
Artist=Glaciär
Album=Fyra
Tracknumber=2
Year=2018



Register


Вернуться к началу страницы
  Insert nick Quick quote
+Цитировать сообщение
 
Создать новую тему
Replies (1 - 3)
post May 8 2018, 05:47:44
Post #2

Правь статус, ####!111
**************
Group: Металариец
Posts: 2,361
Releases: 11
From: Canada
On Forums: 10 years 11 months
Thanks: 1477 time(s)
Canada




Thanks:
(2) Orkkh, ShmiT,
Вернуться к началу страницы
  Insert nick Quick quote
+Цитировать сообщение
post May 11 2018, 17:26:13
Post #3

Семь Литров
*******
Group: Металариец
Posts: 783
Releases: 659
From: Новороссийск
On Forums: 7 years 3 weeks
Thanks: 11164 time(s)
Russian Federation


Вернуться к началу страницы
  Insert nick Quick quote
+Цитировать сообщение
post May 17 2018, 14:39:48
Post #4

MDM-Thrash Metal
**************
Group: Металариец
Posts: 6,684
Releases: 410
From: Одесса
On Forums: 10 years 9 months
Thanks: 12738 time(s)
Ukraine


Register
Вернуться к началу страницы
  Insert nick Quick quote
+Цитировать сообщение

ОтветитьСоздать новую тему
2 User(s) are reading this topic (2 Guests and 0 Anonymous Users)
0 Members:

 



- Lo-Fi Version Support form
Copyrights and abuse reports form
Time is now: 25th May 2018 - 04:23:52