Welcome Guest ( Log In | Register )

> И неформату есть предел.

Рэп/хип-хоп/шансон/поп удаляются. Для них есть свои порталы.

 
Reply to this topicStart new topic
> Sequestered Keep - The Vale Of Ruined Towers (2018), Dungeon Synth/Medieval/Ambient
post May 8 2018, 21:45:38
Post #1

𝕻𝕬𝕹𝕬𝕮𝕰𝕬
******
Group: Металариец
Posts: 532
Releases: 303
On Forums: 6 years 3 weeks
Thanks: 4000 time(s)
Unknown


(IMG:http://metalarea.org/images/audiocovers/2018_May/acov_tid305691_thumb.png)

*Artist: Sequestered Keep
*Album: The Vale Of Ruined Towers
*Year: 2018
*Genre: Dungeon Synth/Medieval/Ambient
*Country: United States (IMG:http://metalarea.org/forum/style_images/flags/United%20States.png)
*Format: mp3@CBR320kbps
*Size: 88MB

Tracklist:
1. Ancient Flames Of Hope Again Burn 03:58
2. With Swords Raised To The Dusking Sky 05:53
3. In Mighty Vastland Dreams 05:12
4. Old Medieval Tales 05:13
5. When Ageless Dragons Blink Awake 05:16
6. Journeying To Magic Realms 04:40
7. Thirty Righteous Oaths Of Battle 05:28
******************************
Total playing time: 35:40



Technical info
(IMG:http://metalarea.org/images/spectrogram/2018_May/1f5d5bf5296e7cae6eed1df4a67a3d33.png)
Input File: 01 - Ancient Flames Of Hope Again Burn.mp3
Channels : 2
Sample Rate : 44100
Precision : 16-bit
Duration : 00:03:58.60 = 10522304 samples = 17895.1 CDDA sectors
File Size : 9.70M
Bit Rate : 325k
Sample Encoding: MPEG audio (layer I, II or III)
Comments :
Title=Ancient Flames Of Hope Again Burn
Artist=Sequestered Keep
Album=The Vale Of Ruined Towers
Tracknumber=1
Year=2018
Genre=Dungeon Synth/Medieval/Ambient



Register


Go to the top of the page
  Insert nick Quick quote
+Quote Post

Reply to this topicStart new topic
1 User(s) are reading this topic (1 Guests and 0 Anonymous Users)
0 Members:

 



- Lo-Fi Version Support form
Copyrights and abuse reports form
Time is now: 23rd June 2018 - 18:24:51