Welcome Guest ( Log In | Register )

> After Forest - Act II & III (2018), Extreme Progressive Metal
post May 9 2018, 03:45:04
Post #1

Аннигилятор пивА
Group Icon
Group: V.I.P
Posts: 52,358
Releases: 16555
From: Koenigsberg - TILZIT
On Forums: 13 years 5 months
Thanks: 363034 time(s)
Russian Federation


(IMG:https://metalarea.org/images/audiocovers/2018_May/acov_tid305695_thumb.jpg)

*Artist: After Forest
*Album: Act II & III
*Year: 2018
*Genre: Extreme Progressive Metal
*Country: Finland (IMG:https://metalarea.org/forum/style_images/flags/Finland.png)
*Format: mp3@CBR320kbps
*Size: 130MB

Tracklist:
1. Legacy 12:23
2. The Letter 05:53
3. No Graves 11:02
4. The New Day/ Second Awakening 17:54
5. Epilogue 07:02
******************************
Total playing time: 54:14




Extended info
Jukka Karppi - Guitar/ Vocals
Jesse Ikola - Guitar / Additional vocals
Joel Kujanpää - Drums
Carl-Axel Åman - Keyboards


Technical info
(IMG:https://metalarea.org/images/spectrogram/2018_May/83ed358d00a00b7c37b8fe0b76f6b07c.png)
Input File: After Forest - After Forest - Act II & III - 02 The Letter.mp3
Channels : 2
Sample Rate : 44100
Precision : 16-bit
Duration : 00:05:53.13 = 15573033 samples = 26484.8 CDDA sectors
File Size : 14.2M
Bit Rate : 322k
Sample Encoding: MPEG audio (layer I, II or III)
Comments :
Title=The Letter
Artist=After Forest
Album=After Forest - Act II & III
Tracknumber=2
Year=2018



Register


Go to the top of the page
  Insert nick Quick quote
+Quote Post
 
Start new topic
Replies (1 - 3)
post May 13 2018, 08:33:53
Post #2

Ненавижу всё общественное, особенно питание, мнение и туалет.
**********
Group: Металариец
Posts: 1,099
Releases: 0
From: Sacred PetroGrind
On Forums: 11 years 8 months
Thanks: 286 time(s)
Russian Federation


Великолепнейший по наполненности эмоциями, красивый и душевный альбом, слушать обязательно (IMG:style_emoticons/default/metaler.gif)


Thanks:
Go to the top of the page
  Insert nick Quick quote
+Quote Post
post May 13 2018, 09:26:23
Post #3

21st Century Schizoid Man
**************
Group: Металариец
Posts: 6,100
Releases: 76
From: Moscow
On Forums: 11 years 6 months
Thanks: 4812 time(s)
Russian Federation


Никакого экстрима тут нет. Пост-блэк.
Go to the top of the page
  Insert nick Quick quote
+Quote Post
post May 13 2018, 10:05:48
Post #4

Аннигилятор пивА
Group Icon
Group: V.I.P
Posts: 52,358
Releases: 16555
From: Koenigsberg - TILZIT
On Forums: 13 years 5 months
Thanks: 363034 time(s)
Russian Federation


ЦИТАТА(Yarri @ May 13 2018, 08:26:23) *
Никакого экстрима тут нет. Пост-блэк.

(IMG:style_emoticons/default/1488.gif) фигасе нет экстрима, а асчет блэка (IMG:style_emoticons/default/crazy.gif) ваще смишно, в целом альбом ближе к атмосферному дум/дэту с лидирующим грулом, я бы даже сказал это пост-дум/дэт, а например 3 трэк вообще по большей части бодрячковый прог дэт... дюже атмосферно получилось и красиво, как если бы прог дэтовый опет заигрался с постом и думом
Go to the top of the page
  Insert nick Quick quote
+Quote Post

Reply to this topicStart new topic
2 User(s) are reading this topic (2 Guests and 0 Anonymous Users)
0 Members:

 



- Lo-Fi Version Support form
Copyrights and abuse reports form
Time is now: 20th November 2019 - 23:42:03