Welcome Guest ( Log In | Register )

> The Plads - Domine Deus (1983), Hard Rock/Heavy Metal
post May 9 2018, 13:40:06
Post #1

Подвал
**************
Group: Металариец
Posts: 12,412
Releases: 6990
From: Far East (Khabarovsk)
On Forums: 9 years 7 months
Thanks: 64465 time(s)
Russian Federation


(IMG:http://metalarea.org/images/audiocovers/2018_May/acov_tid305721_thumb.jpg)

*Artist: The Plads
*Album: Domine Deus
*Year: 1983
*Genre: Hard Rock/Heavy Metal
*Country: United States (IMG:http://metalarea.org/forum/style_images/flags/United%20States.png)
*Format: mp3@CBR192kbps
*Size: 33MB

Tracklist:
1. Teenage Situation 03:04
2. Domine Deus 03:07
3. Amen 03:44
4. Go To Hell 03:55
5. Things Look Different At Night 03:21
6. The Note 03:22
7. Sukiyaki 02:45
******************************
Total playing time: 23:18

(IMG:http://metalarea.org/images/youtube.png)

Extended info
Band from Alaska.


Technical info
(IMG:http://metalarea.org/images/spectrogram/2018_May/2f9b6f72e919f8f042e738cfa0c92443.png)
Input File: 01-Teenage Situation.mp3
Channels : 2
Sample Rate : 44100
Precision : 16-bit
Duration : 00:03:09.72 = 8366564 samples = 14228.9 CDDA sectors
File Size : 4.56M
Bit Rate : 192k
Sample Encoding: MPEG audio (layer I, II or III)
Comments :
Title=Teenage Situation
Artist=THE PLADS
Album=Domine Deus
Tracknumber=01
Year=1983
Genre=Heavy Metal



Register


Go to the top of the page
  Insert nick Quick quote
+Quote Post
 
Start new topic
Replies (1 - 1)
post May 17 2018, 14:24:36
Post #2

South Of Heaven /адепт ВУДУ
**************
Group: Металариец
Posts: 12,856
Releases: 7
From: Санкт-Петербург
On Forums: 8 years 5 months
Thanks: 4695 time(s)
Russian Federation


2. Domine Deus 03:07 (IMG:style_emoticons/default/20.gif)


Thanks:
Go to the top of the page
  Insert nick Quick quote
+Quote Post

Reply to this topicStart new topic
2 User(s) are reading this topic (2 Guests and 0 Anonymous Users)
0 Members:

 



- Lo-Fi Version Support form
Copyrights and abuse reports form
Time is now: 19th September 2018 - 04:22:53