Welcome Guest ( Log In | Register )

> И неформату есть предел.

Рэп/хип-хоп/шансон/поп удаляются. Для них есть свои порталы.

 
Reply to this topicStart new topic
> Rabia Sorda - The World Ends Today (2018), Dark Electro/Industrial
post May 9 2018, 15:42:25
Post #1

Маньяк
**********
Group: Металариец
Posts: 1,225
Releases: 101
From: 56°24′00″ с. ш. 61°56′00″ в. д.
On Forums: 11 years 7 months
Thanks: 2141 time(s)
Russian Federation


(IMG:https://metalarea.org/images/audiocovers/2018_May/acov_tid305735_thumb.jpg)

*Artist: Rabia Sorda
*Album: The World Ends Today
*Year: 2018
*Genre: Dark Electro/Industrial
*Country: Mexico (IMG:https://metalarea.org/forum/style_images/flags/Mexico.png)
*Format: mp3@CBR320kbps
*Size: 190MB

Tracklist:
01.TWET! 0:14
02.Perfect Black 4:28
03.So Slow It Hurts 4:41
04.Estás ahí? 1:20
05.Violent Love Song 4:00
06.We're not Machines 4:05
07.Estas Conmigo... 0:15
08.Shut Up and Dance! 3:52
09.Nobody 4:40
10.Dekadenz 4:14
11.Rebellion of The Wicked 4:07
12.The World Ends Today 4:19
13.Despierta 0:31
14.Møther 4:29
15.Don't Run! (The Evil Within) 3:28
16.Words in Scars 3:53
17.Перезвони Мне 0:16
18.Demolición 2:51
19.Explota! (La Bomba En Mi Cabeza) 5:49
20.Hasta Nunca... 3:12
21.Guten Morgen! 0:20
22.Dekadenz (Cypecore RMX) 4:04
23.Violent Love Song (Chemical Sweet Kid RMX) 3:56
24.We're not Machines (Nostalgic Machine / Cover Version by Prismatic Shapes) 3:24
25.Violent Love Song (72 hrs. Panic Attack Vitam non Mortem RMX) 3:51
******************************
Total playing time: 1:20:19

(IMG:https://metalarea.org/images/youtube.png)

Technical info
(IMG:https://metalarea.org/images/spectrogram/2018_May/90a32969c89bde9f4d164b0f47723efe.png)
Input File: 02_-_Rabia_Sorda_-_Perfect_Black.mp3
Channels : 2
Sample Rate : 44100
Precision : 16-bit
Duration : 00:04:28.28 = 11831104 samples = 20120.9 CDDA sectors
File Size : 11.0M
Bit Rate : 329k
Sample Encoding: MPEG audio (layer I, II or III)
Comments :
Title=Perfect Black
Artist=Rabia Sorda
Album=The World Ends Today
Tracknumber=02/25
Year=2018



Register


Go to the top of the page
  Insert nick Quick quote
+Quote Post

Reply to this topicStart new topic
1 User(s) are reading this topic (1 Guests and 0 Anonymous Users)
0 Members:

 



- Lo-Fi Version Support form
Copyrights and abuse reports form
Time is now: 16th August 2018 - 11:24:15