Welcome Guest ( Log In | Register )

> Zarraza - Necroshiva (2018), Groove Metal
post May 10 2018, 12:25:22
Post #1

Serial Uploader
Group Icon
Group: V.I.P
Posts: 33,063
Releases: 31348
From: Lithuania
On Forums: 10 years 3 months
Thanks: 358605 time(s)
Lithuania


(IMG:https://metalarea.org/images/audiocovers/2018_May/acov_tid305767_thumb.jpg)

*Artist: Zarraza
*Album: Necroshiva
*Year: 2018
*Genre: Groove Metal
*Country: Kazakhstan (IMG:https://metalarea.org/forum/style_images/flags/Kazakhstan.png)
*Format: mp3@CBR320kbps
*Size: 74MB

Tracklist:
01. Abyss Above Me
02. Shadows
03. Necroshiva
04. More Than Hate
05. Echo Of The Future
06. Dead Star
07. Voice Of The Forgotten
08. 150 Words
******************************
Total playing time: 30:45

(IMG:https://metalarea.org/images/myspace.png)

Preview 3

(IMG:https://metalarea.org/images/youtube.png)

Technical info
(IMG:https://metalarea.org/images/spectrogram/2018_May/592b27f3a35ac41ca037979fa62734da.png)
Input File: 02. Shadows.mp3
Channels : 2
Sample Rate : 44100
Precision : 16-bit
Duration : 00:03:48.57 = 10079761 samples = 17142.5 CDDA sectors
File Size : 9.66M
Bit Rate : 338k
Sample Encoding: MPEG audio (layer I, II or III)
Comments :
Title=Shadows
Artist=Zarraza
Album=Necroshiva
Tracknumber=2/8
Year=2018
Genre=Alternative
Discnumber=1/1



Register


Go to the top of the page
  Insert nick Quick quote
+Quote Post
 
Start new topic
Replies (1 - 5)
post May 10 2018, 18:41:59
Post #2

Маньяк
**********
Group: Металариец
Posts: 1,023
Releases: 271
From: Ukraine
On Forums: 9 years 6 months
Thanks: 2238 time(s)
Ukraine


Газета "Zarraza", это не только издание формата "Собеседник"..Рок-Наряд 3,14здёж Бажина)
Go to the top of the page
  Insert nick Quick quote
+Quote Post
post May 11 2018, 11:49:21
Post #3

Два Литра
**
Group: Завсегдатай
Posts: 154
Releases: 0
From: Ташкент
On Forums: 10 years 7 months
Thanks: 31 time(s)
Uzbekistan


А между тем казахи режут убойнеший дэт-трэш.
И записано всё чётко.
Go to the top of the page
  Insert nick Quick quote
+Quote Post
post May 13 2018, 08:49:15
Post #4

South Of Heaven /адепт ВУДУ
**************
Group: Металариец
Posts: 12,867
Releases: 7
From: Санкт-Петербург
On Forums: 8 years 5 months
Thanks: 4703 time(s)
Russian Federation


ЦИТАТА(JPV @ May 11 2018, 13:49:21) *
А между тем казахи режут убойнеший дэт-трэш.
И записано всё чётко.

С казахами там всё очень сложно (IMG:style_emoticons/default/1488.gif)

Alex Filatov Bass (2012-present)
Ruslan Konon Drums (2012-present)
Max "Azazel" Saklakov Guitars (2012-present)
Nick "toRRnado" Khalabuzar Vocals, Guitars (2012-present)


Thanks:
Go to the top of the page
  Insert nick Quick quote
+Quote Post
post Jun 5 2018, 09:59:45
Post #5

South Of Heaven /адепт ВУДУ
**************
Group: Металариец
Posts: 12,867
Releases: 7
From: Санкт-Петербург
On Forums: 8 years 5 months
Thanks: 4703 time(s)
Russian Federation


Я про них ещё здесь отзывался: Zarraza - Bullets & Beliefs [ep] (2012)

Слушабельный материал вполне.
Go to the top of the page
  Insert nick Quick quote
+Quote Post
post Sep 14 2018, 18:31:41
Post #6

necrophilosopher
*********
Group: Металариец
Posts: 963
Releases: 0
From: Ад-на-Земле
On Forums: 9 years 8 months
Thanks: 783 time(s)
Uzbekistan


Go to the top of the page
  Insert nick Quick quote
+Quote Post

Reply to this topicStart new topic
2 User(s) are reading this topic (2 Guests and 0 Anonymous Users)
0 Members:

 



- Lo-Fi Version Support form
Copyrights and abuse reports form
Time is now: 22nd September 2018 - 02:01:09