Welcome Guest ( Log In | Register )

> Правила / Rules

Тут только для чтения лежат низкобитрейтные (<192kbps) релизы, для которых есть аналоги в высокобитрейтных форумах.

Here goes (and stand in read only mode) low bitrate releases (<192kbps) which were already replaced by high bitrate releases in corresponding forums.

> YOB - Our Raw Heart (2018), Stoner/Sludge/Doom Metal
post May 10 2018, 12:37:39
Post #1

MélöManiäc
*****
Group: Металариец
Posts: 447
Releases: 36
From: КубанЬ
On Forums: 9 years 8 months
Thanks: 788 time(s)
Russian Federation


(IMG:http://metalarea.org/images/audiocovers/2018_May/acov_tid305769_thumb.jpg)

*Artist: YOB
*Album: Our Raw Heart
*Year: 2018
*Genre: Stoner/Sludge/Doom Metal
*Country: United States (IMG:http://metalarea.org/forum/style_images/flags/United%20States.png)
*Format: mp3@CBR320kbps
*Size: 175MB

Tracklist:
01. Ablaze 10:13
02. The Screen 09:50
03. In Reverie 09:44
04. Lungs Reach 05:39
05. Beauty in Falling Leaves 16:27
06. Original Face 07:03
07. Our Raw Heart 14:23
******************************
Total playing time: 1:13:19

Extended info
Релиз 8 июня, поэтому пока транскод.



Technical info
(IMG:http://metalarea.org/images/spectrogram/2018_May/b699a9d1470ee4b44d3eb5f09a575098.png)
Input File: 04. Lungs Reach.mp3
Channels : 2
Sample Rate : 44100
Precision : 16-bit
Duration : 00:05:39.99 = 14993647 samples = 25499.4 CDDA sectors
File Size : 13.7M
Bit Rate : 322k
Sample Encoding: MPEG audio (layer I, II or III)
Comments :
Title=Lungs Reach
Artist=YOB
Album=Our Raw Heart
Tracknumber=04
Year=2018-06-08
Genre=Sludge / Stoner d00m
Discnumber=1/1



Register


This post has been edited by Borderline1991: May 16 2018, 18:10:44


Go to the top of the page
  Insert nick Quick quote
+Quote Post
 
Start new topic
Replies (1 - 4)
post May 10 2018, 14:55:22
Post #2

MélöManiäc
*****
Group: Металариец
Posts: 447
Releases: 36
From: КубанЬ
On Forums: 9 years 8 months
Thanks: 788 time(s)
Russian Federation


Register


Go to the top of the page
  Insert nick Quick quote
+Quote Post
post May 17 2018, 12:44:37
Post #3

Шесть Литров
******
Group: Металариец
Posts: 683
Releases: 0
From: Харьков
On Forums: 8 years 11 months
Thanks: 215 time(s)
Ukraine


Жирный альбом. Кстати, по-моему, покруче будет, чем новый Sleep (который сам по себе очень неплох).
Go to the top of the page
  Insert nick Quick quote
+Quote Post
post Jun 6 2018, 01:32:34
Post #4

Group: Подсевший
Posts: 31
Releases: 0
On Forums: 8 months 3 weeks
Thanks: 0 time(s)
Albania


I can't take it, can't downloaded this ... !?! Can someone RE UP please
Go to the top of the page
  Insert nick Quick quote
+Quote Post
post Jun 6 2018, 07:16:29
Post #5

Шесть Литров
******
Group: Металариец
Posts: 649
Releases: 0
On Forums: 10 years 10 months
Thanks: 235 time(s)
Belarus


ждём качества
Go to the top of the page
  Insert nick Quick quote
+Quote Post

Причина закрытия (Borderline1991 07-06-2018): YOB - Our Raw Heart (2018)
Closed TopicStart new topic
2 User(s) are reading this topic (2 Guests and 0 Anonymous Users)
0 Members:

 



- Lo-Fi Version Support form
Copyrights and abuse reports form
Time is now: 18th September 2018 - 19:00:29