Welcome Guest ( Log In | Register )

> И неформату есть предел.

Рэп/хип-хоп/шансон/поп удаляются. Для них есть свои порталы.

 
Reply to this topicStart new topic
> Ill Bill & Ghoul - Ill Bill/Ghoul [split] (2018), Hip-Hop | Death/Thrash Metal/Grindcore
post May 10 2018, 16:02:29
Post #1

Serial Uploader
Group Icon
Group: V.I.P
Posts: 32,736
Releases: 31034
From: Lithuania
On Forums: 10 years 2 weeks
Thanks: 355768 time(s)
Lithuania


(IMG:https://metalarea.org/images/audiocovers/2018_May/acov_tid305798_thumb.jpg)

*Artist: Ill Bill & Ghoul
*Album: Ill Bill/Ghoul [split]
*Year: 2018
*Genre: Hip-Hop | Death/Thrash Metal/Grindcore
*Country: United States (IMG:https://metalarea.org/forum/style_images/flags/United%20States.png) | United States (IMG:https://metalarea.org/forum/style_images/flags/United%20States.png)
*Format: mp3@CBR320kbps
*Size: 15MB

Tracklist:
Ill Bill:
01. Pentagram (Feat. Goretex) 03:02
Ghoul:
02. Splatterthrash 2: Thrash Damage 03:44
******************************
Total playing time: 6:46



(IMG:https://metalarea.org/images/youtube.png)

Technical info
(IMG:https://metalarea.org/images/spectrogram/2018_May/ffd1bfa4aa7a28395d53659445a10e6c.png)
Input File: 02-ghoul-splatterthrash_2_thrash_damage-a24877a3.mp3
Channels : 2
Sample Rate : 44100
Precision : 16-bit
Duration : 00:03:44.52 = 9901332 samples = 16839 CDDA sectors
File Size : 9.35M
Bit Rate : 333k
Sample Encoding: MPEG audio (layer I, II or III)
Comments :
Title=Splatterthrash 2: Thrash Damage
Artist=Ghoul
Album=Split
Tracknumber=2/2
Year=2018
Genre=Other



Register


Thanks:
Go to the top of the page
  Insert nick Quick quote
+Quote Post

Reply to this topicStart new topic
2 User(s) are reading this topic (2 Guests and 0 Anonymous Users)
0 Members:

 



- Lo-Fi Version Support form
Copyrights and abuse reports form
Time is now: 23rd June 2018 - 18:40:25