Welcome Guest ( Log In | Register )

> Disowning - Battle Of Neverness [ep] (2018), Old School Death Metal
post May 11 2018, 21:10:44
Post #1

Правь статус, ####!111
**************
Group: Металариец
Posts: 19,806
Releases: 13428
From: Г.Харьков
On Forums: 7 years 6 months
Thanks: 232437 time(s)
Unknown


(IMG:http://metalarea.org/images/audiocovers/2018_May/acov_tid305836_thumb.jpg)

*Artist: Disowning
*Album: Battle Of Neverness [ep]
*Year: 2018
*Genre: Old School Death Metal
*Country: France (IMG:http://metalarea.org/forum/style_images/flags/France.png)
*Format: mp3@CBR320kbps
*Size: 56MB

Tracklist:
1. Battle of Neverness 03:46
2. Another Piece in My Collection [2015 demo] 04:24
3. Inner Emptiness [2015 demo] 03:30
4. The Storm before the Storm [2015 demo] 04:44
5. Human Cattle [2015 demo] 02:56
******************************
Total playing time: 19:20




Extended info
Vocals : Jesus "The Butcher"
Guitar : PeB
Guitar : Jérôme
Bass : Adrien
Drums : Max


Technical info
(IMG:http://metalarea.org/images/spectrogram/2018_May/c6de1ac569cb809b4bf9e680660ac2b1.png)
Input File: DISOWNING - Battle of Neverness - 01 Battle of Neverness.mp3
Channels : 2
Sample Rate : 44100
Precision : 16-bit
Duration : 00:03:46.95 = 10008319 samples = 17021 CDDA sectors
File Size : 9.25M
Bit Rate : 326k
Sample Encoding: MPEG audio (layer I, II or III)
Comments :
Title=Battle of Neverness
Artist=DISOWNING
Album=Battle of Neverness
Tracknumber=1
Year=2018



Register


Go to the top of the page
  Insert nick Quick quote
+Quote Post
 
Start new topic
Replies (1 - 1)
post May 12 2018, 04:50:14
Post #2

Три Литра
***
Group: Завсегдатай
Posts: 219
Releases: 0
On Forums: 12 years 7 months
Thanks: 131 time(s)
Russian Federation


хорошая ипишка, приятно слушается


upd: не, парни, это просто пушка! топчик-зизитопчик!

(IMG:http://funkyimg.com/i/2GdSS.jpg)

очень классный материал, в этом году обещают дебютник, но этот сингл и демки просто огонь) среднетемповый, мелодличный, цепляющий детмитал!


Go to the top of the page
  Insert nick Quick quote
+Quote Post

Reply to this topicStart new topic
2 User(s) are reading this topic (2 Guests and 0 Anonymous Users)
0 Members:

 



- Lo-Fi Version Support form
Copyrights and abuse reports form
Time is now: 10th December 2019 - 05:41:57